×

¿Problemas para descargar con Mozilla, EDGE? Deshabilita la opción "Abrir vinculos en una pestaña nueva" tal como lo muestra ésta imagen.

Háblame (2023) REMUX 1080p Latino

162 vistas

Información de Háblame (2023) REMUX 1080p Latino

Datos de la película

  • Calidad: Full 1080p
  • Audio: Se especifica abajo de la Sinopsis
  • Subtitulos: Español Latino PGS - Ingles PGS
  • Resolución: 1920x1080p
  • Formato: MKV
  • Codec: H.264
  • Encoder: Melkor
  • Mediainfo: Clic para Mostrar Datos Ver
  • Hablame (2023) REMUX 1080p Latino.mkv
    Format                      : Matroska
    Format version              : Version 4
    File size                   : 20.0 GiB
    Duration                    : 1 h 34 min
    Overall bit rate mode       : Variable
    Overall bit rate            : 30.2 Mb/s
    Movie name                  : Talk to Me (2023) CinemaniaHDD.Net
    Encoded date                : UTC 2023-10-05 20:08:49
    Writing application         : mkvmerge v56.1.0 ('My Friend') 64-bit
    Writing library             : libebml v1.4.2 + libmatroska v1.6.4
    Attachments                 : CINEMANIAHD.png
    Site                        : CinemaniaHDD.Net
    Uploader                    : Melkor

    Video
    ID                          : 1
    Format                      : AVC
    Format/Info                 : Advanced Video Codec
    Format profile              : High@L4.1
    Format settings             : CABAC / 4 Ref Frames
    Format settings, CABAC      : Yes
    Format settings, Reference  : 4 frames
    Codec ID                    : V_MPEG4/ISO/AVC
    Duration                    : 1 h 34 min
    Bit rate mode               : Variable
    Bit rate                    : 25.0 Mb/s
    Maximum bit rate            : 35.0 Mb/s
    Width                       : 1 920 pixels
    Height                      : 1 080 pixels
    Display aspect ratio        : 16:9
    Frame rate mode             : Constant
    Frame rate                  : 23.976 (24000/1001) FPS
    Standard                    : NTSC
    Color space                 : YUV
    Chroma subsampling          : 4:2:0
    Bit depth                   : 8 bits
    Scan type                   : Progressive
    Bits/(Pixel*Frame)          : 0.502
    Stream size                 : 16.6 GiB (83%)
    Title                       : REMUX HD1080p [CinemaniaHDD]
    Default                     : Yes
    Forced                      : Yes
    Color range                 : Limited
    Color primaries             : BT.709
    Transfer characteristics    : BT.709
    Matrix coefficients         : BT.709

    Audio #1
    ID                          : 2
    Format                      : E-AC-3
    Format/Info                 : Enhanced AC-3
    Commercial name             : Dolby Digital Plus
    Codec ID                    : A_EAC3
    Duration                    : 1 h 34 min
    Bit rate mode               : Constant
    Bit rate                    : 640 kb/s
    Channel(s)                  : 6 channels
    Channel layout              : L R C LFE Ls Rs
    Sampling rate               : 48.0 kHz
    Frame rate                  : 31.250 FPS (1536 SPF)
    Compression mode            : Lossy
    Stream size                 : 435 MiB (2%)
    Title                       : Español Latino DDP [CinemaniaHDD]
    Language                    : Spanish
    Service kind                : Complete Main
    Default                     : No
    Forced                      : No

    Audio #2
    ID                          : 3
    Format                      : MLP FBA 16-ch
    Format/Info                 : Meridian Lossless Packing FBA with 16-channel presentation
    Commercial name             : Dolby TrueHD with Dolby Atmos
    Codec ID                    : A_TRUEHD
    Duration                    : 1 h 34 min
    Bit rate mode               : Variable
    Bit rate                    : 3 228 kb/s
    Maximum bit rate            : 5 547 kb/s
    Channel(s)                  : 8 channels
    Channel layout              : L R C LFE Ls Rs Lb Rb
    Sampling rate               : 48.0 kHz
    Frame rate                  : 1 200.000 FPS (40 SPF)
    Compression mode            : Lossless
    Stream size                 : 2.14 GiB (11%)
    Title                       : Ingles THD[CinemaniaHDD]
    Language                    : English
    Default                     : No
    Forced                      : No
    Number of dynamic objects   : 15
    Bed channel count           : 1 channel
    Bed channel configuration   : LFE

    Audio #3
    ID                          : 4
    Format                      : AC-3
    Format/Info                 : Audio Coding 3
    Commercial name             : Dolby Digital
    Codec ID                    : A_AC3
    Duration                    : 1 h 34 min
    Bit rate mode               : Constant
    Bit rate                    : 640 kb/s
    Channel(s)                  : 6 channels
    Channel layout              : L R C LFE Ls Rs
    Sampling rate               : 48.0 kHz
    Frame rate                  : 31.250 FPS (1536 SPF)
    Compression mode            : Lossy
    Stream size                 : 435 MiB (2%)
    Title                       : Español Latino AC3 [CinemaniaHDD]
    Language                    : Spanish
    Service kind                : Complete Main
    Default                     : Yes
    Forced                      : Yes

    Audio #4
    ID                          : 5
    Format                      : AC-3
    Format/Info                 : Audio Coding 3
    Commercial name             : Dolby Digital
    Codec ID                    : A_AC3
    Duration                    : 1 h 34 min
    Bit rate mode               : Constant
    Bit rate                    : 640 kb/s
    Channel(s)                  : 6 channels
    Channel layout              : L R C LFE Ls Rs
    Sampling rate               : 48.0 kHz
    Frame rate                  : 31.250 FPS (1536 SPF)
    Compression mode            : Lossy
    Stream size                 : 435 MiB (2%)
    Title                       : Ingles AC3 [CinemaniaHDD]
    Language                    : English
    Service kind                : Complete Main
    Default                     : No
    Forced                      : No

    Text #1
    ID                          : 6
    Format                      : PGS
    Muxing mode                 : zlib
    Codec ID                    : S_HDMV/PGS
    Codec ID/Info               : Picture based subtitle format used on BDs/HD-DVDs
    Duration                    : 1 h 33 min
    Bit rate                    : 24.2 kb/s
    Count of elements           : 2064
    Stream size                 : 16.1 MiB (0%)
    Title                       : Español-PGS [CinemaniaHDD]
    Language                    : Spanish
    Default                     : No
    Forced                      : No

    Text #2
    ID                          : 7
    Format                      : PGS
    Muxing mode                 : zlib
    Codec ID                    : S_HDMV/PGS
    Codec ID/Info               : Picture based subtitle format used on BDs/HD-DVDs
    Duration                    : 1 h 33 min
    Bit rate                    : 38.7 kb/s
    Count of elements           : 3024
    Stream size                 : 26.0 MiB (0%)
    Title                       : Ingles-PGS [CinemaniaHDD]
    Language                    : English
    Default                     : No
    Forced                      : No

    Text #3
    ID                          : 8
    Format                      : UTF-8
    Codec ID                    : S_TEXT/UTF8
    Codec ID/Info               : UTF-8 Plain Text
    Duration                    : 1 h 25 min
    Bit rate                    : 0 b/s
    Count of elements           : 6
    Stream size                 : 71.0 Bytes (0%)
    Title                       : Forzados-SRT [CinemaniaHDD]
    Language                    : Spanish
    Default                     : Yes
    Forced                      : Yes

    Text #4
    ID                          : 9
    Format                      : UTF-8
    Codec ID                    : S_TEXT/UTF8
    Codec ID/Info               : UTF-8 Plain Text
    Duration                    : 1 h 29 min
    Bit rate                    : 41 b/s
    Count of elements           : 1122
    Stream size                 : 27.3 KiB (0%)
    Title                       : Español-SRT [CinemaniaHDD]
    Language                    : Spanish
    Default                     : No
    Forced                      : No

    Menu
    00:00:00.000                : Chapter 01
    00:08:22.502                : Chapter 02
    00:14:22.862                : Chapter 03
    00:23:43.422                : Chapter 04
    00:31:21.296                : Chapter 05
    00:39:13.351                : Chapter 06
    00:46:34.500                : Chapter 07
    00:53:17.611                : Chapter 08
    01:02:03.720                : Chapter 09
    01:09:10.146                : Chapter 10
    01:19:04.740                : Chapter 11
    01:24:45.080                : Chapter 12

  • Peso: 20.0 GiB

Sinopsis

Descargar Háblame (2023) REMUX 1080p Latino. La solitaria adolescente Mia se engancha a la emoción de invocar espíritus utilizando una mano embalsamada, pero cuando se enfrenta a un alma que dice ser su madre muerta, desata una plaga de fuerzas sobrenaturales y se debate entre decidir en quién puede confiar: en los vivos o en los muertos.

Español Latino EAC3 & AC3 5.1 Web – Ingles TrueHD 7.1 & AC3 5.1 BD

Ficha técnica

Video trailer de la película

Enlaces de descarga

Rip de Bluray

Descargar Háblame (2023) REMUX 1080p Latino




Aportes de DPeliculasHDmega la pass es:dpeliculashdmega.org Aportes de CinemaniaHD la pass es:cinemaniahdd.com Aportes recientes:cinemaniahdd.net
Guardado en : Remux , Suspenso , Terror

Películas relacionadas

  • La Duquesa (2008) REMUX 1080p Latino-CMHDD

    La Duquesa (2008) REMUX 1080p Latino-CMHDD

    2008
    La Duquesa (2008) REMUX 1080p Latino-CMHDD

    1h 51m 2008

    Descargar La Duquesa (2008) REMUX 1080p Latino-CMHDD. Hermosa, glamurosa y adorada por el pueblo, Georgiana...

    Director: Saul Dibb

    Género: Drama

    Actores: Thomas Arnold

  • Godzilla vs. Kong (2021) REMUX 4K HDR Latino – CMHDD

    Godzilla vs. Kong (2021) REMUX 4K HDR Latino – CMHDD

    2021
    Godzilla vs. Kong (2021) REMUX 4K HDR Latino – CMHDD

    1h 54m 2021

    Godzilla y Kong, dos de las fuerzas más poderosas de un planeta habitado por todo tipo de aterradoras...

    Director: Thomas Robinson Harper

    Género: Acción

    Actores: Victoria Liu

  • Ferrari (2023) REMUX 1080p Latino

    Ferrari (2023) REMUX 1080p Latino

    2023
    Ferrari (2023) REMUX 1080p Latino

    2h 11m 2023

    Descargar Ferrari (2023) REMUX 1080p Latino. Verano de 1957. El ex piloto de carreras, Ferrari, está...

    Director: Peter Thorell

    Género: Drama

    Actores: Wyatt Carnel

descargar Háblame (2023) REMUX 1080p Latino Full 1080p 1080p gratis, Háblame (2023) REMUX 1080p Latino Full 1080p mega 1 link, Háblame (2023) REMUX 1080p Latino Full 1080p pelicula completa, descargar Háblame (2023) REMUX 1080p Latino Full 1080p gratis en mega.

Háblame (2023) REMUX 1080p Latino pelicula full hd, Háblame (2023) REMUX 1080p Latino mega latino, Háblame (2023) REMUX 1080p Latino 4k latino, Háblame (2023) REMUX 1080p Latino pelicula completa, Háblame (2023) REMUX 1080p Latino descargar gratis, descargar Háblame (2023) REMUX 1080p Latino pelicula latino, Háblame (2023) REMUX 1080p Latino 1 link mega, Háblame (2023) REMUX 1080p Latino 1 link google drive, Háblame (2023) REMUX 1080p Latino hd 1080p latino.
Comentarios 0