×

¿Problemas para descargar con Mozilla, EDGE? Deshabilita la opción "Abrir vinculos en una pestaña nueva" tal como lo muestra ésta imagen.

Había una vez en… Hollywood (2019) WEB-DL 1080p Latino

3.018 vistas

Información de Había una vez en… Hollywood (2019) WEB-DL 1080p Latino

Datos de la película

  • Calidad: WEBDL
  • Audio: Español Latino AC3 2.0 iTunes - Ingles AC3 5.1 iTunes
  • Subtitulos: Español Latino SRT- FORZADOS SRT
  • Resolución: 1920x796
  • Formato: MKV
  • Codec: H.264
  • Encoder: cinemaniahdd
  • Mediainfo: Clic para Mostrar Datos Ver
  • Había una vez en... Hollywood (2019) WEB-DL 1080p Latino.mkv
    Format                      : Matroska
    Format version              : Version 4
    File size                   : 5.84 GiB
    Duration                    : 2 h 41 min
    Overall bit rate            : 5 165 kb/s
    Movie name                  : Había una vez en... Hollywood (2019) - CinemaniaHDD.Net
    Encoded date                : UTC 2019-11-22 06:12:59
    Writing application         : mkvmerge v38.0.0 ('The Silent Type') 64-bit
    Writing library             : libebml v1.3.9 + libmatroska v1.5.2

    Video
    ID                          : 1
    Format                      : AVC
    Format/Info                 : Advanced Video Codec
    Format profile              : High@L4
    Format settings             : CABAC / 5 Ref Frames
    Format settings, CABAC      : Yes
    Format settings, ReFrames   : 5 frames
    Codec ID                    : V_MPEG4/ISO/AVC
    Duration                    : 2 h 41 min
    Bit rate                    : 4 524 kb/s
    Width                       : 1 920 pixels
    Height                      : 796 pixels
    Display aspect ratio        : 2.40:1
    Frame rate mode             : Constant
    Frame rate                  : 23.976 FPS
    Color space                 : YUV
    Chroma subsampling          : 4:2:0
    Bit depth                   : 8 bits
    Scan type                   : Progressive
    Bits/(Pixel*Frame)          : 0.123
    Stream size                 : 5.11 GiB (88%)
    Title                       : CinemaniaHDD
    Language                    : English
    Default                     : Yes
    Forced                      : No
    Color range                 : Limited
    Color primaries             : BT.709
    Transfer characteristics    : BT.709
    Matrix coefficients         : BT.709

    Audio #1
    ID                          : 2
    Format                      : AC-3
    Format/Info                 : Audio Coding 3
    Commercial name             : Dolby Digital
    Codec ID                    : A_AC3
    Duration                    : 2 h 41 min
    Bit rate mode               : Constant
    Bit rate                    : 256 kb/s
    Channel(s)                  : 2 channels
    Channel layout              : L R
    Sampling rate               : 48.0 kHz
    Frame rate                  : 31.250 FPS (1536 SPF)
    Bit depth                   : 16 bits
    Compression mode            : Lossy
    Delay relative to video     : -43 ms
    Stream size                 : 296 MiB (5%)
    Title                       : Español latino [CinemaniaHDD]
    Language                    : Spanish
    Service kind                : Complete Main
    Default                     : Yes
    Forced                      : No

    Audio #2
    ID                          : 3
    Format                      : AC-3
    Format/Info                 : Audio Coding 3
    Commercial name             : Dolby Digital
    Codec ID                    : A_AC3
    Duration                    : 2 h 41 min
    Bit rate mode               : Constant
    Bit rate                    : 384 kb/s
    Channel(s)                  : 6 channels
    Channel layout              : L R C LFE Ls Rs
    Sampling rate               : 48.0 kHz
    Frame rate                  : 31.250 FPS (1536 SPF)
    Bit depth                   : 16 bits
    Compression mode            : Lossy
    Delay relative to video     : -43 ms
    Stream size                 : 444 MiB (7%)
    Title                       : Inglés [CinemaniaHDD]
    Language                    : English
    Service kind                : Complete Main
    Default                     : No
    Forced                      : No

    Text #1
    ID                          : 4
    Format                      : UTF-8
    Codec ID                    : S_TEXT/UTF8
    Codec ID/Info               : UTF-8 Plain Text
    Duration                    : 2 h 40 min
    Bit rate                    : 0 b/s
    Count of elements           : 15
    Stream size                 : 444 Bytes (0%)
    Title                       : Forzados [CinemaniaHDD]
    Language                    : Spanish
    Default                     : Yes
    Forced                      : Yes

    Text #2
    ID                          : 5
    Format                      : UTF-8
    Codec ID                    : S_TEXT/UTF8
    Codec ID/Info               : UTF-8 Plain Text
    Duration                    : 2 h 40 min
    Bit rate                    : 49 b/s
    Count of elements           : 1731
    Stream size                 : 58.7 KiB (0%)
    Title                       : Español latino [CinemaniaHDD]
    Language                    : Spanish
    Default                     : No
    Forced                      : No

    Menu
    00:00:00.000                : en:1
    00:04:50.415                : en:2
    00:13:46.200                : en:3
    00:18:30.150                : en:4
    00:22:01.319                : en:5
    00:26:00.348                : en:6
    00:28:42.092                : en:7
    00:33:46.103                : en:8
    00:40:20.330                : en:9
    00:50:00.451                : en:10
    00:51:49.684                : en:11
    00:59:53.249                : en:12
    01:02:33.866                : en:13
    01:04:29.605                : en:14
    01:09:17.725                : en:15
    01:17:41.770                : en:16
    01:20:26.767                : en:17
    01:26:29.420                : en:18
    01:32:55.431                : en:19
    01:39:59.480                : en:20
    01:47:56.205                : en:21
    01:53:01.217                : en:22
    01:58:10.526                : en:23
    02:06:24.978                : en:24
    02:11:23.943                : en:25
    02:15:51.084                : en:26
    02:21:31.173                : en:27
    02:29:51.714                : en:28
    02:36:29.236                : en:29
    02:38:52.212                : en:30

     

  • Peso: 5.84 GiB

Sinopsis

“Érase una vez en… Hollywood” de Quentin Tarantino, nos lleva a Los Angeles de 1969, donde todo está cambiando, y donde la estrella de la televisión Rick Dalton (Leonardo DiCaprio), y Cliff Booth (Brad Pitt), su doble de muchos años, se abren camino en una industria que ya prácticamente no reconocen. La novena película del célebre escritor y director cuenta con amplio reparto y múltiples tramas argumentales que rinden un tributo a los momentos finales de la época dorada de Hollywood.

Ficha técnica

Video trailer de la película

Enlaces de descarga

Rip de Bluray

Descargar Había una vez en… Hollywood (2019) WEB-DL 1080p Latino




Aportes de DPeliculasHDmega la pass es:dpeliculashdmega.org Aportes de CinemaniaHD la pass es:cinemaniahdd.com
Guardado en : Comedia , Drama , Suspenso

Películas relacionadas

  • Men in Black (1997) REMUX 4K HDR Latino – CMHDD

    Men in Black (1997) REMUX 4K HDR Latino – CMHDD

    1997
    Men in Black (1997) REMUX 4K HDR Latino – CMHDD

    1h 34m 1997

    Durante muchos años los extraterrestres han vivido en la Tierra, mezclados con los humanos, sin que...

    Director: Tyrone S. Walker

    Género: Acción

    Actores: Willie C. Carpenter

  • Blonde (2022) NF WEB-DL 1080p Latino

    Blonde (2022) NF WEB-DL 1080p Latino

    2022
    Blonde (2022) NF WEB-DL 1080p Latino

    2h 46m 2022

    Descargar Blonde (2022) NF WEB-DL 1080p Latino. Basada en el bestseller de la cinco veces finalista al...

    Director: Kristin Bree Calabrese

    Género: Drama

    Actores: Xavier Samuel

  • La Máquina infernal (2022) WEB-DL 1080p Latino

    La Máquina infernal (2022) WEB-DL 1080p Latino

    2022
    La Máquina infernal (2022) WEB-DL 1080p Latino

    1h 47m 2022

    Descargar La Máquina infernal (2022) WEB-DL 1080p Latino. Un fan obsesivo saca de su escondite al solitario...

    Director: Andrew Hunt

    Género: Suspenso

    Actores: Rocco Salata

  • Borrego: Sal Del Camino (2022) HD 1080p Latino

    Borrego: Sal Del Camino (2022) HD 1080p Latino

    2022
    Borrego: Sal Del Camino (2022) HD 1080p Latino

    1h 42m 2022

    Descargar Borrego: Sal Del Camino (2022) HD 1080p Latino. Una joven botánica se traslada a un pequeño...

    Director: Jesse Harris

    Género: Crimen

    Actores: Olivia Trujillo

descargar Había una vez en… Hollywood (2019) WEB-DL 1080p Latino WEBDL 1080p gratis, Había una vez en… Hollywood (2019) WEB-DL 1080p Latino WEBDL mega 1 link, Había una vez en… Hollywood (2019) WEB-DL 1080p Latino WEBDL pelicula completa, descargar Había una vez en… Hollywood (2019) WEB-DL 1080p Latino WEBDL gratis en mega.

Había una vez en… Hollywood (2019) WEB-DL 1080p Latino pelicula full hd, Había una vez en… Hollywood (2019) WEB-DL 1080p Latino mega latino, Había una vez en… Hollywood (2019) WEB-DL 1080p Latino 4k latino, Había una vez en… Hollywood (2019) WEB-DL 1080p Latino pelicula completa, Había una vez en… Hollywood (2019) WEB-DL 1080p Latino descargar gratis, descargar Había una vez en… Hollywood (2019) WEB-DL 1080p Latino pelicula latino, Había una vez en… Hollywood (2019) WEB-DL 1080p Latino 1 link mega, Había una vez en… Hollywood (2019) WEB-DL 1080p Latino 1 link google drive, Había una vez en… Hollywood (2019) WEB-DL 1080p Latino hd 1080p latino.
Comentarios 0