×

¿Problemas para descargar con Mozilla, EDGE? Deshabilita la opción "Abrir vinculos en una pestaña nueva" tal como lo muestra ésta imagen.

Había una vez en Hollywood (2019) REMUX 1080p Latino

1.099 vistas

Información de Había una vez en Hollywood (2019) REMUX 1080p Latino

Datos de la película

  • Calidad: Full 1080p
  • Audio: Español Latino AC3 5.1 BLURAY - Ingles DTS 5.1 BLURAY
  • Subtitulos: Español Latino PGS - Ingles PGS
  • Resolución: 1920x1080p
  • Formato: MKV
  • Codec: H.264
  • Encoder: CinefiloCool
  • Mediainfo: Clic para Mostrar Datos Ver
  • Habia una vez en Hollywood (2019) REMUX 1080p Latino-CMHDD.mkv
    Format                      : Matroska
    Format version              : Version 4
    File size                   : 31.6 GiB
    Duration                    : 2 h 41 min
    Overall bit rate mode       : Variable
    Overall bit rate            : 28.0 Mb/s
    Movie name                  : CinemaniaHDD.Net
    Encoded date                : UTC 2019-12-01 06:01:18
    Writing application         : mkvmerge v38.0.0 ('The Silent Type') 64-bit
    Writing library             : libebml v1.3.9 + libmatroska v1.5.2
    Attachments                 : CINEMANIAHD.png

    Video
    ID                          : 1
    Format                      : AVC
    Format/Info                 : Advanced Video Codec
    Format profile              : High@L4.1
    Format settings             : CABAC / 2 Ref Frames
    Format settings, CABAC      : Yes
    Format settings, ReFrames   : 2 frames
    Format settings, GOP        : M=1, N=10
    Codec ID                    : V_MPEG4/ISO/AVC
    Duration                    : 2 h 41 min
    Bit rate mode               : Variable
    Bit rate                    : 23.9 Mb/s
    Width                       : 1 920 pixels
    Height                      : 1 080 pixels
    Display aspect ratio        : 16:9
    Frame rate mode             : Constant
    Frame rate                  : 23.976 (24000/1001) FPS
    Color space                 : YUV
    Chroma subsampling          : 4:2:0
    Bit depth                   : 8 bits
    Scan type                   : Progressive
    Bits/(Pixel*Frame)          : 0.481
    Stream size                 : 27.0 GiB (85%)
    Title                       : Full HD1080p [REMUX]
    Default                     : Yes
    Forced                      : Yes

    Audio #1
    ID                          : 2
    Format                      : AC-3
    Format/Info                 : Audio Coding 3
    Commercial name             : Dolby Digital
    Codec ID                    : A_AC3
    Duration                    : 2 h 41 min
    Bit rate mode               : Constant
    Bit rate                    : 640 kb/s
    Channel(s)                  : 6 channels
    Channel layout              : L R C LFE Ls Rs
    Sampling rate               : 48.0 kHz
    Frame rate                  : 31.250 FPS (1536 SPF)
    Bit depth                   : 16 bits
    Compression mode            : Lossy
    Stream size                 : 739 MiB (2%)
    Title                       : AC3_5.1_Bluray_Esp
    Language                    : Spanish
    Service kind                : Complete Main
    Default                     : Yes
    Forced                      : Yes

    Audio #2
    ID                          : 3
    Format                      : DTS XLL
    Format/Info                 : Digital Theater Systems
    Commercial name             : DTS-HD Master Audio
    Codec ID                    : A_DTS
    Duration                    : 2 h 41 min
    Bit rate mode               : Variable
    Bit rate                    : 3 440 kb/s
    Channel(s)                  : 6 channels
    Channel layout              : C L R Ls Rs LFE
    Sampling rate               : 48.0 kHz
    Frame rate                  : 93.750 FPS (512 SPF)
    Bit depth                   : 24 bits
    Compression mode            : Lossless
    Stream size                 : 3.88 GiB (12%)
    Title                       : DTS-HD_5.1_Bluray_Eng
    Language                    : English
    Default                     : No
    Forced                      : No

    Text #1
    ID                          : 4
    Format                      : PGS
    Muxing mode                 : zlib
    Codec ID                    : S_HDMV/PGS
    Codec ID/Info               : Picture based subtitle format used on BDs/HD-DVDs
    Duration                    : 2 h 40 min
    Bit rate                    : 259 b/s
    Count of elements           : 30
    Stream size                 : 305 KiB (0%)
    Title                       : Sub_Forzados [PGS]
    Language                    : Spanish
    Default                     : Yes
    Forced                      : Yes

    Text #2
    ID                          : 5
    Format                      : PGS
    Muxing mode                 : zlib
    Codec ID                    : S_HDMV/PGS
    Codec ID/Info               : Picture based subtitle format used on BDs/HD-DVDs
    Duration                    : 2 h 40 min
    Bit rate                    : 29.6 kb/s
    Count of elements           : 3462
    Stream size                 : 34.1 MiB (0%)
    Title                       : Sub_Esp [PGS]
    Language                    : Spanish
    Default                     : No
    Forced                      : No

    Text #3
    ID                          : 6
    Format                      : PGS
    Muxing mode                 : zlib
    Codec ID                    : S_HDMV/PGS
    Codec ID/Info               : Picture based subtitle format used on BDs/HD-DVDs
    Duration                    : 2 h 40 min
    Bit rate                    : 37.2 kb/s
    Count of elements           : 4116
    Stream size                 : 42.8 MiB (0%)
    Title                       : Sub_Eng [PGS]
    Language                    : English
    Default                     : No
    Forced                      : No

    Text #4
    ID                          : 7
    Format                      : UTF-8
    Codec ID                    : S_TEXT/UTF8
    Codec ID/Info               : UTF-8 Plain Text
    Duration                    : 2 h 5 min
    Bit rate                    : 0 b/s
    Count of elements           : 14
    Stream size                 : 399 Bytes (0%)
    Title                       : Sub_Forzados
    Language                    : Spanish
    Default                     : No
    Forced                      : No

    Text #5
    ID                          : 8
    Format                      : UTF-8
    Codec ID                    : S_TEXT/UTF8
    Codec ID/Info               : UTF-8 Plain Text
    Duration                    : 2 h 39 min
    Bit rate                    : 50 b/s
    Count of elements           : 1730
    Stream size                 : 58.7 KiB (0%)
    Title                       : Sub_Esp
    Language                    : Spanish
    Default                     : No
    Forced                      : No

    Menu
    00:00:00.000                : en:Chapter 01
    00:04:49.080                : en:Chapter 02
    00:13:45.199                : en:Chapter 03
    00:18:29.149                : en:Chapter 04
    00:22:00.319                : en:Chapter 05
    00:25:59.057                : en:Chapter 06
    00:28:41.052                : en:Chapter 07
    00:33:45.064                : en:Chapter 08
    00:40:19.250                : en:Chapter 09
    00:49:59.162                : en:Chapter 10
    00:51:48.522                : en:Chapter 11
    00:59:52.672                : en:Chapter 12
    01:02:32.665                : en:Chapter 13
    01:04:28.573                : en:Chapter 14
    01:09:16.735                : en:Chapter 15
    01:17:40.697                : en:Chapter 16
    01:20:25.487                : en:Chapter 17
    01:26:28.433                : en:Chapter 18
    01:32:54.443                : en:Chapter 19
    01:39:58.492                : en:Chapter 20
    01:47:55.051                : en:Chapter 21
    01:53:00.231                : en:Chapter 22
    01:58:09.207                : en:Chapter 23
    02:06:23.993                : en:Chapter 24
    02:11:22.708                : en:Chapter 25
    02:15:50.100                : en:Chapter 26
    02:21:30.064                : en:Chapter 27
    02:29:50.731                : en:Chapter 28
    02:36:28.170                : en:Chapter 29
    02:38:51.230                : en:Chapter 30

  • Peso: 31.6 GiB

Sinopsis

Descargar Había una vez en Hollywood (2019) REMUX 1080p Latino. “Érase una vez en… Hollywood” de Quentin Tarantino, nos lleva a Los Angeles de 1969, donde todo está cambiando, y donde la estrella de la televisión Rick Dalton (Leonardo DiCaprio), y Cliff Booth (Brad Pitt), su doble de muchos años, se abren camino en una industria que ya prácticamente no reconocen. La novena película del célebre escritor y director cuenta con amplio reparto y múltiples tramas argumentales que rinden un tributo a los momentos finales de la época dorada de Hollywood.

Ficha técnica

Video trailer de la película

Enlaces de descarga

Rip de Bluray

Descargar Había una vez en Hollywood (2019) REMUX 1080p Latino




Aportes de DPeliculasHDmega la pass es:dpeliculashdmega.org Aportes de CinemaniaHD la pass es:cinemaniahdd.com
Guardado en : Comedia , Drama , Remux , Suspenso

Películas relacionadas

  • Tren Bala (2022) WEB-DL 4K UHD HDR Latino

    Tren Bala (2022) WEB-DL 4K UHD HDR Latino

    2022
    Tren Bala (2022) WEB-DL 4K UHD HDR Latino

    2h 7m 2022

    Descargar Tren Bala (2022) WEB-DL 4K UHD HDR Latino. El desafortunado asesino "Catarina" está decidido...

    Director: Paul Barry

    Género: 4K HDR

    Actores: Zooey Miyoshi

  • Tren Bala (2022) AMZN WEB-DL 1080p Latino

    Tren Bala (2022) AMZN WEB-DL 1080p Latino

    2022
    Tren Bala (2022) AMZN WEB-DL 1080p Latino

    2h 7m 2022

    Descargar Tren Bala (2022) AMZN WEB-DL 1080p Latino. Cinco asesinos a sueldo se encuentran a bordo de...

    Director: Paul Barry

    Género: Acción

    Actores: Zooey Miyoshi

  • Infiniti (2022) Primera Temporada WEB-DL 1080p Latino

    Infiniti (2022) Primera Temporada WEB-DL 1080p Latino

    2022
    Infiniti (2022) Primera Temporada WEB-DL 1080p Latino

    0h 52m 2022

    La ISS, la Estación Espacial Internacional se ha quedado en silencio. La tripulación está en peligro....

    Director: Stéphane Pannetier

    Género: Drama

    Actores: Vlad Ivanov

  • Rick y Morty (2022) Temporada 6 WEB-DL 1080p Latino

    Rick y Morty (2022) Temporada 6 WEB-DL 1080p Latino

    2013
    Rick y Morty (2022) Temporada 6 WEB-DL 1080p Latino

    0h 22m 2013

    Comedia animada que narra las aventuras de un científico loco Rick Sánchez, que regresa después de...

    Director: Justin Roiland

    Género: Action & Adventure

    Actores: Spencer Grammer

descargar Había una vez en Hollywood (2019) REMUX 1080p Latino Full 1080p 1080p gratis, Había una vez en Hollywood (2019) REMUX 1080p Latino Full 1080p mega 1 link, Había una vez en Hollywood (2019) REMUX 1080p Latino Full 1080p pelicula completa, descargar Había una vez en Hollywood (2019) REMUX 1080p Latino Full 1080p gratis en mega.

Había una vez en Hollywood (2019) REMUX 1080p Latino pelicula full hd, Había una vez en Hollywood (2019) REMUX 1080p Latino mega latino, Había una vez en Hollywood (2019) REMUX 1080p Latino 4k latino, Había una vez en Hollywood (2019) REMUX 1080p Latino pelicula completa, Había una vez en Hollywood (2019) REMUX 1080p Latino descargar gratis, descargar Había una vez en Hollywood (2019) REMUX 1080p Latino pelicula latino, Había una vez en Hollywood (2019) REMUX 1080p Latino 1 link mega, Había una vez en Hollywood (2019) REMUX 1080p Latino 1 link google drive, Había una vez en Hollywood (2019) REMUX 1080p Latino hd 1080p latino.
Comentarios 0