×

¿Problemas para descargar con Mozilla, EDGE? Deshabilita la opción "Abrir vinculos en una pestaña nueva" tal como lo muestra ésta imagen.

Había una vez en Hollywood (2019) Full HD 1080p Latino

4.095 vistas

Información de Había una vez en Hollywood (2019) Full HD 1080p Latino

Datos de la película

  • Calidad: Full 1080p
  • Audio: Español Latino AC3 5.1 BLURAY - Ingles DTS 5.1 BLURAY
  • Subtitulos: Español Latino PGS - Ingles PGS
  • Resolución: 1920x1080p
  • Formato: MKV
  • Codec: H.264
  • Encoder: CinefiloCool
  • Mediainfo: Clic para Mostrar Datos Ver
  • Habia una vez en Hollywood (2019) Full HD 1080p Latino-CMHDD.mkv
    Format                      : Matroska
    Format version              : Version 4
    File size                   : 9.17 GiB
    Duration                    : 2 h 41 min
    Overall bit rate            : 8 126 kb/s
    Movie name                  : CinemaniaHDD.Net
    Encoded date                : UTC 2019-12-01 06:12:00
    Writing application         : mkvmerge v38.0.0 ('The Silent Type') 64-bit
    Writing library             : libebml v1.3.9 + libmatroska v1.5.2
    Attachments                 : CINEMANIAHD.png

    Video
    ID                          : 1
    Format                      : AVC
    Format/Info                 : Advanced Video Codec
    Format profile              : High@L4.1
    Format settings             : CABAC / 4 Ref Frames
    Format settings, CABAC      : Yes
    Format settings, ReFrames   : 4 frames
    Codec ID                    : V_MPEG4/ISO/AVC
    Duration                    : 2 h 41 min
    Bit rate                    : 5 939 kb/s
    Width                       : 1 920 pixels
    Height                      : 1 080 pixels
    Display aspect ratio        : 16:9
    Frame rate mode             : Constant
    Frame rate                  : 23.976 (24000/1001) FPS
    Color space                 : YUV
    Chroma subsampling          : 4:2:0
    Bit depth                   : 8 bits
    Scan type                   : Progressive
    Bits/(Pixel*Frame)          : 0.119
    Stream size                 : 6.70 GiB (73%)
    Title                       : Full HD1080p [Bluray]
    Writing library             : x264 core 157 r2935 545de2f
    Encoding settings           : cabac=1 / ref=4 / deblock=1:0:0 / analyse=0x3:0x133 / me=tesa / subme=11 / psy=1 / psy_rd=1.00:0.00 / mixed_ref=1 / me_range=24 / chroma_me=1 / trellis=2 / 8x8dct=1 / cqm=0 / deadzone=21,11 / fast_pskip=0 / chroma_qp_offset=-2 / threads=34 / lookahead_threads=8 / sliced_threads=0 / nr=0 / decimate=1 / interlaced=0 / bluray_compat=0 / constrained_intra=0 / bframes=16 / b_pyramid=2 / b_adapt=2 / b_bias=0 / direct=3 / weightb=1 / open_gop=0 / weightp=2 / keyint=240 / keyint_min=24 / scenecut=40 / intra_refresh=0 / rc_lookahead=60 / rc=crf / mbtree=1 / crf=19.0 / qcomp=0.60 / qpmin=0 / qpmax=69 / qpstep=4 / vbv_maxrate=62500 / vbv_bufsize=78125 / crf_max=0.0 / nal_hrd=none / filler=0 / ip_ratio=1.40 / aq=1:1.00
    Default                     : Yes
    Forced                      : Yes
    Color range                 : Limited
    Color primaries             : BT.709
    Transfer characteristics    : BT.709
    Matrix coefficients         : BT.709

    Audio #1
    ID                          : 2
    Format                      : AC-3
    Format/Info                 : Audio Coding 3
    Commercial name             : Dolby Digital
    Codec ID                    : A_AC3
    Duration                    : 2 h 41 min
    Bit rate mode               : Constant
    Bit rate                    : 640 kb/s
    Channel(s)                  : 6 channels
    Channel layout              : L R C LFE Ls Rs
    Sampling rate               : 48.0 kHz
    Frame rate                  : 31.250 FPS (1536 SPF)
    Bit depth                   : 16 bits
    Compression mode            : Lossy
    Stream size                 : 739 MiB (8%)
    Title                       : AC3_5.1_Bluray_Esp
    Language                    : Spanish
    Service kind                : Complete Main
    Default                     : Yes
    Forced                      : Yes

    Audio #2
    ID                          : 3
    Format                      : DTS
    Format/Info                 : Digital Theater Systems
    Codec ID                    : A_DTS
    Duration                    : 2 h 41 min
    Bit rate mode               : Constant
    Bit rate                    : 1 509 kb/s
    Channel(s)                  : 6 channels
    Channel layout              : C L R Ls Rs LFE
    Sampling rate               : 48.0 kHz
    Frame rate                  : 93.750 FPS (512 SPF)
    Bit depth                   : 24 bits
    Compression mode            : Lossy
    Stream size                 : 1.70 GiB (19%)
    Title                       : DTS_5.1_Bluray_Eng
    Language                    : English
    Default                     : No
    Forced                      : No

    Text #1
    ID                          : 4
    Format                      : PGS
    Muxing mode                 : zlib
    Codec ID                    : S_HDMV/PGS
    Codec ID/Info               : Picture based subtitle format used on BDs/HD-DVDs
    Duration                    : 2 h 40 min
    Bit rate                    : 259 b/s
    Count of elements           : 30
    Stream size                 : 305 KiB (0%)
    Title                       : Sub_Forzados [PGS]
    Language                    : Spanish
    Default                     : Yes
    Forced                      : Yes

    Text #2
    ID                          : 5
    Format                      : PGS
    Muxing mode                 : zlib
    Codec ID                    : S_HDMV/PGS
    Codec ID/Info               : Picture based subtitle format used on BDs/HD-DVDs
    Duration                    : 2 h 40 min
    Bit rate                    : 29.6 kb/s
    Count of elements           : 3462
    Stream size                 : 34.1 MiB (0%)
    Title                       : Sub_Esp [PGS]
    Language                    : Spanish
    Default                     : No
    Forced                      : No

    Text #3
    ID                          : 6
    Format                      : PGS
    Muxing mode                 : zlib
    Codec ID                    : S_HDMV/PGS
    Codec ID/Info               : Picture based subtitle format used on BDs/HD-DVDs
    Duration                    : 2 h 40 min
    Bit rate                    : 37.2 kb/s
    Count of elements           : 4116
    Stream size                 : 42.8 MiB (0%)
    Title                       : Sub_Eng [PGS]
    Language                    : English
    Default                     : No
    Forced                      : No

    Text #4
    ID                          : 7
    Format                      : UTF-8
    Codec ID                    : S_TEXT/UTF8
    Codec ID/Info               : UTF-8 Plain Text
    Duration                    : 2 h 5 min
    Bit rate                    : 0 b/s
    Count of elements           : 14
    Stream size                 : 399 Bytes (0%)
    Title                       : Sub_Forzados
    Language                    : Spanish
    Default                     : No
    Forced                      : No

    Text #5
    ID                          : 8
    Format                      : UTF-8
    Codec ID                    : S_TEXT/UTF8
    Codec ID/Info               : UTF-8 Plain Text
    Duration                    : 2 h 39 min
    Bit rate                    : 50 b/s
    Count of elements           : 1730
    Stream size                 : 58.7 KiB (0%)
    Title                       : Sub_Esp
    Language                    : Spanish
    Default                     : No
    Forced                      : No

    Menu
    00:00:00.000                : en:Chapter 01
    00:04:49.080                : en:Chapter 02
    00:13:45.199                : en:Chapter 03
    00:18:29.149                : en:Chapter 04
    00:22:00.319                : en:Chapter 05
    00:25:59.057                : en:Chapter 06
    00:28:41.052                : en:Chapter 07
    00:33:45.064                : en:Chapter 08
    00:40:19.250                : en:Chapter 09
    00:49:59.162                : en:Chapter 10
    00:51:48.522                : en:Chapter 11
    00:59:52.672                : en:Chapter 12
    01:02:32.665                : en:Chapter 13
    01:04:28.573                : en:Chapter 14
    01:09:16.735                : en:Chapter 15
    01:17:40.697                : en:Chapter 16
    01:20:25.487                : en:Chapter 17
    01:26:28.433                : en:Chapter 18
    01:32:54.443                : en:Chapter 19
    01:39:58.492                : en:Chapter 20
    01:47:55.051                : en:Chapter 21
    01:53:00.231                : en:Chapter 22
    01:58:09.207                : en:Chapter 23
    02:06:23.993                : en:Chapter 24
    02:11:22.708                : en:Chapter 25
    02:15:50.100                : en:Chapter 26
    02:21:30.064                : en:Chapter 27
    02:29:50.731                : en:Chapter 28
    02:36:28.170                : en:Chapter 29
    02:38:51.230                : en:Chapter 30

  • Peso: 9.17 GiB

Sinopsis

Descargar Había una vez en Hollywood (2019) Full HD 1080p Latino. “Érase una vez en… Hollywood” de Quentin Tarantino, nos lleva a Los Angeles de 1969, donde todo está cambiando, y donde la estrella de la televisión Rick Dalton (Leonardo DiCaprio), y Cliff Booth (Brad Pitt), su doble de muchos años, se abren camino en una industria que ya prácticamente no reconocen. La novena película del célebre escritor y director cuenta con amplio reparto y múltiples tramas argumentales que rinden un tributo a los momentos finales de la época dorada de Hollywood.

Ficha técnica

Video trailer de la película

Enlaces de descarga

Rip de Bluray

Descargar Había una vez en Hollywood (2019) Full HD 1080p Latino




Aportes de DPeliculasHDmega la pass es:dpeliculashdmega.org Aportes de CinemaniaHD la pass es:cinemaniahdd.com Aportes recientes:cinemaniahdd.net

Películas relacionadas

  • Squealer (2023) PCOK WEB-DL 1080p Latino

    Squealer (2023) PCOK WEB-DL 1080p Latino

    2023
    Squealer (2023) PCOK WEB-DL 1080p Latino

    1h 39m 2023

    Un policía local y una trabajadora social, siguen las pistas sobre los casos de personas desaparecidas...

    Director: Andy Armstrong

    Género: Suspenso

    Actores: Wes Chatham

  • Who Invited Charlie? (2023) AMZN WEB-DL 1080p Latino

    Who Invited Charlie? (2023) AMZN WEB-DL 1080p Latino

    2023
    Who Invited Charlie? (2023) AMZN WEB-DL 1080p Latino

    1h 41m 2023

    Phil y su familia buscan refugio en los Hamptons para esquivar la pandemia, pero su paz se acaba con...

    Director: Xavier Manrique

    Género: Comedia

    Actores: Xosha Roquemore

  • Hightown (2024) Temporada 3 AMZN WEB-DL 1080p Latino

    Hightown (2024) Temporada 3 AMZN WEB-DL 1080p Latino

    2020
    Hightown (2024) Temporada 3 AMZN WEB-DL 1080p Latino

    0h 55m 2020

    En la tercera temporada de Hightown, Jackie Quinones debe confiar en sus lealtades y creencias para elegir...

    Director: Rebecca Perry Cutter

    Género: Crimen

    Actores: Riley Voelkel

descargar Había una vez en Hollywood (2019) Full HD 1080p Latino Full 1080p 1080p gratis, Había una vez en Hollywood (2019) Full HD 1080p Latino Full 1080p mega 1 link, Había una vez en Hollywood (2019) Full HD 1080p Latino Full 1080p pelicula completa, descargar Había una vez en Hollywood (2019) Full HD 1080p Latino Full 1080p gratis en mega.

Había una vez en Hollywood (2019) Full HD 1080p Latino pelicula full hd, Había una vez en Hollywood (2019) Full HD 1080p Latino mega latino, Había una vez en Hollywood (2019) Full HD 1080p Latino 4k latino, Había una vez en Hollywood (2019) Full HD 1080p Latino pelicula completa, Había una vez en Hollywood (2019) Full HD 1080p Latino descargar gratis, descargar Había una vez en Hollywood (2019) Full HD 1080p Latino pelicula latino, Había una vez en Hollywood (2019) Full HD 1080p Latino 1 link mega, Había una vez en Hollywood (2019) Full HD 1080p Latino 1 link google drive, Había una vez en Hollywood (2019) Full HD 1080p Latino hd 1080p latino.
Comentarios 0