×

¿Problemas para descargar con Mozilla, EDGE? Deshabilita la opción "Abrir vinculos en una pestaña nueva" tal como lo muestra ésta imagen.

Había una vez en… Hollywood (2019) 1080p Latino

2.014 vistas

Información de Había una vez en… Hollywood (2019) 1080p Latino

Datos de la película

  • Calidad: 1080p
  • Audio: Español Latino AC3 5.1 BLURAY - Ingles AC3 5.1 BLURAY
  • Subtitulos: Español Latino SRT- FORZADOS SRT
  • Resolución: 1920x800
  • Formato: MKV
  • Codec: H.264
  • Encoder: cinemaniahdd
  • Mediainfo: Clic para Mostrar Datos Ver
  • Había una vez en... Hollywood (2019) 1080p Latino.mkv
    Format                      : Matroska
    Format version              : Version 4
    File size                   : 5.15 GiB
    Duration                    : 2 h 41 min
    Overall bit rate            : 4 567 kb/s
    Movie name                  : Había una vez en... Hollywood (2019) - CinemaniaHDD.Net
    Encoded date                : UTC 2019-11-28 04:59:36
    Writing application         : mkvmerge v38.0.0 ('The Silent Type') 64-bit
    Writing library             : libebml v1.3.9 + libmatroska v1.5.2

    Video
    ID                          : 1
    Format                      : AVC
    Format/Info                 : Advanced Video Codec
    Format profile              : Main@L4
    Format settings             : CABAC / 4 Ref Frames
    Format settings, CABAC      : Yes
    Format settings, ReFrames   : 4 frames
    Codec ID                    : V_MPEG4/ISO/AVC
    Duration                    : 2 h 41 min
    Bit rate                    : 3 500 kb/s
    Width                       : 1 920 pixels
    Height                      : 800 pixels
    Display aspect ratio        : 2.40:1
    Frame rate mode             : Constant
    Frame rate                  : 23.976 (24000/1001) FPS
    Color space                 : YUV
    Chroma subsampling          : 4:2:0
    Bit depth                   : 8 bits
    Scan type                   : Progressive
    Bits/(Pixel*Frame)          : 0.095
    Stream size                 : 3.92 GiB (76%)
    Title                       : CinemaniaHDD
    Writing library             : x264 core 157 r2935 545de2f
    Encoding settings           : cabac=1 / ref=3 / deblock=1:0:0 / analyse=0x1:0x111 / me=hex / subme=7 / psy=1 / psy_rd=1.00:0.00 / mixed_ref=1 / me_range=16 / chroma_me=1 / trellis=1 / 8x8dct=0 / cqm=0 / deadzone=21,11 / fast_pskip=1 / chroma_qp_offset=-2 / threads=25 / lookahead_threads=4 / sliced_threads=0 / nr=0 / decimate=1 / interlaced=0 / bluray_compat=0 / constrained_intra=0 / bframes=3 / b_pyramid=2 / b_adapt=1 / b_bias=0 / direct=1 / weightb=1 / open_gop=0 / weightp=2 / keyint=240 / keyint_min=24 / scenecut=40 / intra_refresh=0 / rc_lookahead=40 / rc=abr / mbtree=1 / bitrate=3500 / ratetol=1.0 / qcomp=0.60 / qpmin=0 / qpmax=69 / qpstep=4 / vbv_maxrate=20000 / vbv_bufsize=25000 / nal_hrd=none / filler=0 / ip_ratio=1.40 / aq=1:1.00
    Default                     : Yes
    Forced                      : No
    Color range                 : Limited
    Color primaries             : BT.709
    Transfer characteristics    : BT.709
    Matrix coefficients         : BT.709

    Audio #1
    ID                          : 2
    Format                      : AC-3
    Format/Info                 : Audio Coding 3
    Commercial name             : Dolby Digital
    Codec ID                    : A_AC3
    Duration                    : 2 h 41 min
    Bit rate mode               : Constant
    Bit rate                    : 640 kb/s
    Channel(s)                  : 6 channels
    Channel layout              : L R C LFE Ls Rs
    Sampling rate               : 48.0 kHz
    Frame rate                  : 31.250 FPS (1536 SPF)
    Bit depth                   : 16 bits
    Compression mode            : Lossy
    Delay relative to video     : -5 ms
    Stream size                 : 739 MiB (14%)
    Title                       : Español latino [CinemaniaHDD]
    Language                    : Spanish
    Service kind                : Complete Main
    Default                     : Yes
    Forced                      : No

    Audio #2
    ID                          : 3
    Format                      : AC-3
    Format/Info                 : Audio Coding 3
    Commercial name             : Dolby Digital
    Codec ID                    : A_AC3
    Duration                    : 2 h 41 min
    Bit rate mode               : Constant
    Bit rate                    : 448 kb/s
    Channel(s)                  : 6 channels
    Channel layout              : L R C LFE Ls Rs
    Sampling rate               : 48.0 kHz
    Frame rate                  : 31.250 FPS (1536 SPF)
    Bit depth                   : 16 bits
    Compression mode            : Lossy
    Delay relative to video     : -5 ms
    Stream size                 : 517 MiB (10%)
    Title                       : Inglés [CinemaniaHDD]
    Language                    : English
    Service kind                : Complete Main
    Default                     : No
    Forced                      : No

    Text #1
    ID                          : 4
    Format                      : UTF-8
    Codec ID                    : S_TEXT/UTF8
    Codec ID/Info               : UTF-8 Plain Text
    Duration                    : 2 h 40 min
    Bit rate                    : 0 b/s
    Count of elements           : 15
    Stream size                 : 444 Bytes (0%)
    Title                       : Forzados [CinemaniaHDD]
    Language                    : Spanish
    Default                     : Yes
    Forced                      : Yes

    Text #2
    ID                          : 5
    Format                      : UTF-8
    Codec ID                    : S_TEXT/UTF8
    Codec ID/Info               : UTF-8 Plain Text
    Duration                    : 2 h 40 min
    Bit rate                    : 49 b/s
    Count of elements           : 1731
    Stream size                 : 58.7 KiB (0%)
    Title                       : Español latino [CinemaniaHDD]
    Language                    : Spanish
    Default                     : No
    Forced                      : No

    Menu
    00:00:00.000                : :00:00:00.000
    00:04:49.414                : :00:04:49.414
    00:13:45.199                : :00:13:45.199
    00:18:29.150                : :00:18:29.150
    00:22:00.319                : :00:22:00.319
    00:25:59.349                : :00:25:59.349
    00:28:41.094                : :00:28:41.094
    00:33:45.106                : :00:33:45.106
    00:40:19.334                : :00:40:19.334
    00:49:59.455                : :00:49:59.455
    00:51:48.689                : :00:51:48.689
    00:59:52.255                : :00:59:52.255
    01:02:32.874                : :01:02:32.874
    01:04:28.615                : :01:04:28.615
    01:09:16.736                : :01:09:16.736
    01:17:40.781                : :01:17:40.781
    01:20:25.779                : :01:20:25.779
    01:26:28.433                : :01:26:28.433
    01:32:54.444                : :01:32:54.444
    01:39:58.493                : :01:39:58.492
    01:47:55.219                : :01:47:55.219
    01:53:00.232                : :01:53:00.232
    01:58:09.541                : :01:58:09.541
    02:06:23.993                : :02:06:23.993
    02:11:22.958                : :02:11:22.958
    02:15:50.100                : :02:15:50.100
    02:21:30.190                : :02:21:30.190
    02:29:50.732                : :02:29:50.732
    02:36:28.254                : :02:36:28.254
    02:38:51.230                : :02:38:51.230

     

  • Peso: 5.15 GiB

Sinopsis

Hollywood, años 60. La estrella de un western televisivo, Rick Dalton (DiCaprio), intenta amoldarse a los cambios del medio al mismo tiempo que su doble (Pitt). La vida de Dalton está ligada completamente a Hollywood, y es vecino de la joven y prometedora actriz y modelo Sharon Tate (Robbie) que acaba de casarse con el prestigioso director Roman Polanski

Ficha técnica

Video trailer de la película

Enlaces de descarga

Rip de Bluray

Descargar Había una vez en… Hollywood (2019) 1080p Latino




Aportes de DPeliculasHDmega la pass es:dpeliculashdmega.org Aportes de CinemaniaHD la pass es:cinemaniahdd.com
Guardado en : Comedia , Drama , HD 1080p , Suspenso

Películas relacionadas

  • El Ultimo Juego (2021) WEB-DL 1080p Latino

    El Ultimo Juego (2021) WEB-DL 1080p Latino

    2021
    El Ultimo Juego (2021) WEB-DL 1080p Latino

    1h 21m 2021

    Descargar El Ultimo Juego (2021) WEB-DL 1080p Latino. 6 extraños se despiertan dentro de una habitación...

    Director: John David Moffat IV

    Género: Drama

    Actores: Yasmin Irvine

  • DC Liga De Supermascotas (2022) HD 1080p Latino

    DC Liga De Supermascotas (2022) HD 1080p Latino

    2022
    DC Liga De Supermascotas (2022) HD 1080p Latino

    1h 45m 2022

    Descargar DC Liga De Supermascotas (2022) HD 1080p Latino. Krypto el Superperro y Superman son amigos...

    Director: Sam Levine

    Género: Acción

    Actores: Yvette Nicole Brown

  • Invitacion Al Infierno (2022) MA WEB-DL 1080p Latino

    Invitacion Al Infierno (2022) MA WEB-DL 1080p Latino

    2022
    Invitacion Al Infierno (2022) MA WEB-DL 1080p Latino

    1h 45m 2022

    Descargar Invitacion Al Infierno (2022) MA WEB-DL 1080p Latino. Tras la muerte de su madre y quedarse...

    Director: Jessica M. Thompson

    Género: Suspenso

    Actores: Virág Bárány

descargar Había una vez en… Hollywood (2019) 1080p Latino 1080p 1080p gratis, Había una vez en… Hollywood (2019) 1080p Latino 1080p mega 1 link, Había una vez en… Hollywood (2019) 1080p Latino 1080p pelicula completa, descargar Había una vez en… Hollywood (2019) 1080p Latino 1080p gratis en mega.

Había una vez en… Hollywood (2019) 1080p Latino pelicula full hd, Había una vez en… Hollywood (2019) 1080p Latino mega latino, Había una vez en… Hollywood (2019) 1080p Latino 4k latino, Había una vez en… Hollywood (2019) 1080p Latino pelicula completa, Había una vez en… Hollywood (2019) 1080p Latino descargar gratis, descargar Había una vez en… Hollywood (2019) 1080p Latino pelicula latino, Había una vez en… Hollywood (2019) 1080p Latino 1 link mega, Había una vez en… Hollywood (2019) 1080p Latino 1 link google drive, Había una vez en… Hollywood (2019) 1080p Latino hd 1080p latino.
Comentarios 0