×

¿Problemas para descargar con Mozilla, EDGE? Deshabilita la opción "Abrir vinculos en una pestaña nueva" tal como lo muestra ésta imagen.

Guy Ritchie’s The Covenant (2023) AMZN WEB-DL 1080p Latino

249 vistas

Información de Guy Ritchie’s The Covenant (2023) AMZN WEB-DL 1080p Latino

Datos de la película

  • Calidad: 1080p
  • Audio: Español Latino AC3 5.1 WEB-DL - Ingles AC3 5.1 WEB-DL
  • Subtitulos: Español Latino SRT- FORZADOS SRT
  • Resolución: 1920x1080
  • Formato: MKV
  • Codec: H.264
  • Encoder: cinemaniahdd
  • Mediainfo: Clic para Mostrar Datos Ver
  • Guy Ritchie's The Covenant (2023) AMZN WEB-DL 1080p Latino [CNMNHDD].mkv
    Format                      : Matroska
    Format version              : Version 4
    File size                   : 7.25 GiB
    Duration                    : 2 h 3 min
    Overall bit rate            : 8 436 kb/s
    Movie name                  : El Pacto (2023) [1080p] - CinemaniaHDD.Net
    Encoded date                : UTC 2023-06-24 00:37:37
    Writing application         : mkvmerge v56.1.0 ('My Friend') 64-bit
    Writing library             : libebml v1.4.2 + libmatroska v1.6.4

    Video
    ID                          : 1
    Format                      : AVC
    Format/Info                 : Advanced Video Codec
    Format profile              : High@L4
    Format settings             : CABAC / 4 Ref Frames
    Format settings, CABAC      : Yes
    Format settings, Reference  : 4 frames
    Codec ID                    : V_MPEG4/ISO/AVC
    Duration                    : 2 h 3 min
    Bit rate mode               : Constant
    Bit rate                    : 6 513 kb/s
    Nominal bit rate            : 10 000 kb/s
    Width                       : 1 920 pixels
    Height                      : 800 pixels
    Display aspect ratio        : 2.40:1
    Frame rate mode             : Constant
    Frame rate                  : 23.976 (24000/1001) FPS
    Color space                 : YUV
    Chroma subsampling          : 4:2:0
    Bit depth                   : 8 bits
    Scan type                   : Progressive
    Bits/(Pixel*Frame)          : 0.177
    Stream size                 : 5.60 GiB (77%)
    Title                       : CinemaniaHDD
    Default                     : Yes
    Forced                      : No
    Color range                 : Limited
    Color primaries             : BT.709
    Transfer characteristics    : BT.709
    Matrix coefficients         : BT.709

    Audio #1
    ID                          : 2
    Format                      : AC-3
    Format/Info                 : Audio Coding 3
    Commercial name             : Dolby Digital
    Codec ID                    : A_AC3
    Duration                    : 2 h 3 min
    Bit rate mode               : Constant
    Bit rate                    : 640 kb/s
    Channel(s)                  : 6 channels
    Channel layout              : L R C LFE Ls Rs
    Sampling rate               : 48.0 kHz
    Frame rate                  : 31.250 FPS (1536 SPF)
    Compression mode            : Lossy
    Stream size                 : 564 MiB (8%)
    Title                       : Español Latino [CinemaniaHDD]
    Language                    : Spanish
    Service kind                : Complete Main
    Default                     : Yes
    Forced                      : No

    Audio #2
    ID                          : 3
    Format                      : E-AC-3
    Format/Info                 : Enhanced AC-3
    Commercial name             : Dolby Digital Plus
    Codec ID                    : A_EAC3
    Duration                    : 2 h 3 min
    Bit rate mode               : Constant
    Bit rate                    : 640 kb/s
    Channel(s)                  : 6 channels
    Channel layout              : L R C LFE Ls Rs
    Sampling rate               : 48.0 kHz
    Frame rate                  : 31.250 FPS (1536 SPF)
    Compression mode            : Lossy
    Stream size                 : 564 MiB (8%)
    Title                       : Español latino / E-AC3 [CinemaniaHDD]
    Language                    : Spanish
    Service kind                : Complete Main
    Default                     : No
    Forced                      : No

    Audio #3
    ID                          : 4
    Format                      : E-AC-3
    Format/Info                 : Enhanced AC-3
    Commercial name             : Dolby Digital Plus
    Codec ID                    : A_EAC3
    Duration                    : 2 h 3 min
    Bit rate mode               : Constant
    Bit rate                    : 640 kb/s
    Channel(s)                  : 6 channels
    Channel layout              : L R C LFE Ls Rs
    Sampling rate               : 48.0 kHz
    Frame rate                  : 31.250 FPS (1536 SPF)
    Compression mode            : Lossy
    Stream size                 : 564 MiB (8%)
    Title                       : Inglés [CinemaniaHDD]
    Language                    : English
    Service kind                : Complete Main
    Default                     : No
    Forced                      : No

    Text #1
    ID                          : 5
    Format                      : UTF-8
    Codec ID                    : S_TEXT/UTF8
    Codec ID/Info               : UTF-8 Plain Text
    Duration                    : 1 h 56 min
    Bit rate                    : 8 b/s
    Count of elements           : 270
    Stream size                 : 7.61 KiB (0%)
    Title                       : Forzados [CinemaniaHDD]
    Language                    : Spanish
    Default                     : Yes
    Forced                      : Yes

    Text #2
    ID                          : 6
    Format                      : UTF-8
    Codec ID                    : S_TEXT/UTF8
    Codec ID/Info               : UTF-8 Plain Text
    Duration                    : 2 h 2 min
    Bit rate                    : 36 b/s
    Count of elements           : 1098
    Stream size                 : 33.0 KiB (0%)
    Title                       : Español Latino [CinemaniaHDD]
    Language                    : Spanish
    Default                     : No
    Forced                      : No

    Text #3
    ID                          : 7
    Format                      : UTF-8
    Codec ID                    : S_TEXT/UTF8
    Codec ID/Info               : UTF-8 Plain Text
    Duration                    : 1 h 52 min
    Bit rate                    : 52 b/s
    Count of elements           : 1591
    Stream size                 : 43.5 KiB (0%)
    Title                       : Inglés [CinemaniaHDD]
    Language                    : English
    Default                     : No
    Forced                      : No

     

  • Peso: 7.25 GiB

Sinopsis

Después de una emboscada, el intérprete afgano Ahmed hace todo lo posible para salvar la vida del sargento del ejército estadounidense John Kinley. Cuando Kinley se entera de que a Ahmed y su familia no se les dio un pasaje seguro a Estados Unidos como prometieron, debe pagar su deuda regresando a la zona de guerra para recuperarlos antes de que los talibanes los persigan.

Ficha técnica

Video trailer de la película

Enlaces de descarga

Rip de Bluray

Descargar Guy Ritchie’s The Covenant (2023) AMZN WEB-DL 1080p Latino




Aportes de DPeliculasHDmega la pass es:dpeliculashdmega.org Aportes de CinemaniaHD la pass es:cinemaniahdd.com Aportes recientes:cinemaniahdd.net
Guardado en : Acción , Bélica , Suspenso

Películas relacionadas

descargar Guy Ritchie’s The Covenant (2023) AMZN WEB-DL 1080p Latino 1080p 1080p gratis, Guy Ritchie’s The Covenant (2023) AMZN WEB-DL 1080p Latino 1080p mega 1 link, Guy Ritchie’s The Covenant (2023) AMZN WEB-DL 1080p Latino 1080p pelicula completa, descargar Guy Ritchie’s The Covenant (2023) AMZN WEB-DL 1080p Latino 1080p gratis en mega.

Guy Ritchie’s The Covenant (2023) AMZN WEB-DL 1080p Latino pelicula full hd, Guy Ritchie’s The Covenant (2023) AMZN WEB-DL 1080p Latino mega latino, Guy Ritchie’s The Covenant (2023) AMZN WEB-DL 1080p Latino 4k latino, Guy Ritchie’s The Covenant (2023) AMZN WEB-DL 1080p Latino pelicula completa, Guy Ritchie’s The Covenant (2023) AMZN WEB-DL 1080p Latino descargar gratis, descargar Guy Ritchie’s The Covenant (2023) AMZN WEB-DL 1080p Latino pelicula latino, Guy Ritchie’s The Covenant (2023) AMZN WEB-DL 1080p Latino 1 link mega, Guy Ritchie’s The Covenant (2023) AMZN WEB-DL 1080p Latino 1 link google drive, Guy Ritchie’s The Covenant (2023) AMZN WEB-DL 1080p Latino hd 1080p latino.
Comentarios 0