×

¿Problemas para descargar con Mozilla, EDGE? Deshabilita la opción "Abrir vinculos en una pestaña nueva" tal como lo muestra ésta imagen.

Guy Ritchie’s The Covenant (2023) AMZN 4K-HDR WEB-DL 2160p Latino

288 vistas

Información de Guy Ritchie’s The Covenant (2023) AMZN 4K-HDR WEB-DL 2160p Latino

Datos de la película

  • Calidad: 4K HDR
  • Audio: Español Latino AC3 5.1 WEB-DL - Ingles AC3 5.1 WEB-DL
  • Subtitulos: Español Latino SRT- FORZADOS SRT
  • Resolución: 3840x2160
  • Formato: MKV
  • Codec: H.264
  • Encoder: cinemaniahdd
  • Mediainfo: Clic para Mostrar Datos Ver
  • Guy Ritchie's The Covenant (2023) AMZN 4K-HDR WEB-DL 2160p Latino [CNMNHDD].mkv
    Format                      : Matroska
    Format version              : Version 4
    File size                   : 14.4 GiB
    Duration                    : 2 h 3 min
    Overall bit rate            : 16.8 Mb/s
    Movie name                  : El Pacto (2023) [2160p] - CinemaniaHDD.Net
    Encoded date                : UTC 2023-06-24 00:58:40
    Writing application         : mkvmerge v56.1.0 ('My Friend') 64-bit
    Writing library             : libebml v1.4.2 + libmatroska v1.6.4

    Video
    ID                          : 1
    Format                      : HEVC
    Format/Info                 : High Efficiency Video Coding
    Format profile              : Main 10@L5@Main
    HDR format                  : Dolby Vision, Version 1.0, dvhe.08.06, BL+RPU, HDR10 compatible / SMPTE ST 2094 App 4, Version 1, HDR10+ Profile B compatible
    Codec ID                    : V_MPEGH/ISO/HEVC
    Duration                    : 2 h 3 min
    Bit rate                    : 14.7 Mb/s
    Width                       : 3 840 pixels
    Height                      : 1 600 pixels
    Display aspect ratio        : 2.40:1
    Frame rate mode             : Constant
    Frame rate                  : 23.976 (24000/1001) FPS
    Color space                 : YUV
    Chroma subsampling          : 4:2:0
    Bit depth                   : 10 bits
    Bits/(Pixel*Frame)          : 0.100
    Stream size                 : 12.7 GiB (88%)
    Title                       : CinemaniaHDD
    Default                     : Yes
    Forced                      : No
    Color range                 : Limited
    Color primaries             : BT.2020
    Transfer characteristics    : PQ
    Matrix coefficients         : BT.2020 non-constant
    Mastering display color pri : Display P3
    Mastering display luminance : min: 0.0001 cd/m2, max: 1000 cd/m2
    Maximum Content Light Level : 1000 cd/m2
    Maximum Frame-Average Light : 142 cd/m2

    Audio #1
    ID                          : 2
    Format                      : AC-3
    Format/Info                 : Audio Coding 3
    Commercial name             : Dolby Digital
    Codec ID                    : A_AC3
    Duration                    : 2 h 3 min
    Bit rate mode               : Constant
    Bit rate                    : 640 kb/s
    Channel(s)                  : 6 channels
    Channel layout              : L R C LFE Ls Rs
    Sampling rate               : 48.0 kHz
    Frame rate                  : 31.250 FPS (1536 SPF)
    Compression mode            : Lossy
    Stream size                 : 563 MiB (4%)
    Title                       : Español latino [CinemaniaHDD]
    Language                    : Spanish
    Service kind                : Complete Main
    Default                     : Yes
    Forced                      : No

    Audio #2
    ID                          : 3
    Format                      : E-AC-3
    Format/Info                 : Enhanced AC-3
    Commercial name             : Dolby Digital Plus
    Codec ID                    : A_EAC3
    Duration                    : 2 h 3 min
    Bit rate mode               : Constant
    Bit rate                    : 640 kb/s
    Channel(s)                  : 6 channels
    Channel layout              : L R C LFE Ls Rs
    Sampling rate               : 48.0 kHz
    Frame rate                  : 31.250 FPS (1536 SPF)
    Compression mode            : Lossy
    Stream size                 : 563 MiB (4%)
    Title                       : Español latino / E-AC3 [CinemaniaHDD]
    Language                    : Spanish
    Service kind                : Complete Main
    Default                     : No
    Forced                      : No

    Audio #3
    ID                          : 4
    Format                      : E-AC-3 JOC
    Format/Info                 : Enhanced AC-3 with Joint Object Coding
    Commercial name             : Dolby Digital Plus with Dolby Atmos
    Codec ID                    : A_EAC3
    Duration                    : 2 h 3 min
    Bit rate mode               : Constant
    Bit rate                    : 768 kb/s
    Channel(s)                  : 6 channels
    Channel layout              : L R C LFE Ls Rs
    Sampling rate               : 48.0 kHz
    Frame rate                  : 31.250 FPS (1536 SPF)
    Compression mode            : Lossy
    Delay relative to video     : 20 ms
    Stream size                 : 676 MiB (5%)
    Title                       : Inglés [CinemaniaHDD]
    Language                    : English
    Service kind                : Complete Main
    Default                     : No
    Forced                      : No
    Complexity index            : 16
    Number of dynamic objects   : 15
    Bed channel count           : 1 channel
    Bed channel configuration   : LFE

    Text #1
    ID                          : 5
    Format                      : UTF-8
    Codec ID                    : S_TEXT/UTF8
    Codec ID/Info               : UTF-8 Plain Text
    Duration                    : 1 h 56 min
    Bit rate                    : 8 b/s
    Count of elements           : 270
    Stream size                 : 7.61 KiB (0%)
    Title                       : Forzados [CinemaniaHDD]
    Language                    : Spanish
    Default                     : Yes
    Forced                      : Yes

    Text #2
    ID                          : 6
    Format                      : UTF-8
    Codec ID                    : S_TEXT/UTF8
    Codec ID/Info               : UTF-8 Plain Text
    Duration                    : 2 h 2 min
    Bit rate                    : 36 b/s
    Count of elements           : 1098
    Stream size                 : 33.0 KiB (0%)
    Title                       : Español latino [CinemaniaHDD]
    Language                    : Spanish
    Default                     : No
    Forced                      : No

    Text #3
    ID                          : 7
    Format                      : UTF-8
    Codec ID                    : S_TEXT/UTF8
    Codec ID/Info               : UTF-8 Plain Text
    Duration                    : 1 h 59 min
    Bit rate                    : 45 b/s
    Count of elements           : 1333
    Stream size                 : 39.5 KiB (0%)
    Title                       : Inglés [CinemaniaHDD]
    Language                    : English
    Default                     : No
    Forced                      : No

    Menu
    00:00:00.020                : Chapter 1
    00:10:52.370                : Chapter 2
    00:20:11.720                : Chapter 3
    00:30:00.020                : Chapter 4
    00:39:16.270                : Chapter 5
    00:49:20.520                : Chapter 6
    00:58:59.020                : Chapter 7
    01:08:03.020                : Chapter 8
    01:17:50.670                : Chapter 9
    01:28:07.220                : Chapter 10
    01:38:40.020                : Chapter 11
    01:45:52.120                : Chapter 12
    01:56:14.520                : Chapter 13

     

  • Peso: 14.4 GiB

Sinopsis

Después de una emboscada, el intérprete afgano Ahmed hace todo lo posible para salvar la vida del sargento del ejército estadounidense John Kinley. Cuando Kinley se entera de que a Ahmed y su familia no se les dio un pasaje seguro a Estados Unidos como prometieron, debe pagar su deuda regresando a la zona de guerra para recuperarlos antes de que los talibanes los persigan.

Ficha técnica

Video trailer de la película

Enlaces de descarga

Rip de Bluray

Descargar Guy Ritchie’s The Covenant (2023) AMZN 4K-HDR WEB-DL 2160p Latino




Aportes de DPeliculasHDmega la pass es:dpeliculashdmega.org Aportes de CinemaniaHD la pass es:cinemaniahdd.com Aportes recientes:cinemaniahdd.net
Guardado en : 4K HDR , 4K UHD , Acción , Bélica , Suspenso

Películas relacionadas

descargar Guy Ritchie’s The Covenant (2023) AMZN 4K-HDR WEB-DL 2160p Latino 4K HDR 1080p gratis, Guy Ritchie’s The Covenant (2023) AMZN 4K-HDR WEB-DL 2160p Latino 4K HDR mega 1 link, Guy Ritchie’s The Covenant (2023) AMZN 4K-HDR WEB-DL 2160p Latino 4K HDR pelicula completa, descargar Guy Ritchie’s The Covenant (2023) AMZN 4K-HDR WEB-DL 2160p Latino 4K HDR gratis en mega.

Guy Ritchie’s The Covenant (2023) AMZN 4K-HDR WEB-DL 2160p Latino pelicula full hd, Guy Ritchie’s The Covenant (2023) AMZN 4K-HDR WEB-DL 2160p Latino mega latino, Guy Ritchie’s The Covenant (2023) AMZN 4K-HDR WEB-DL 2160p Latino 4k latino, Guy Ritchie’s The Covenant (2023) AMZN 4K-HDR WEB-DL 2160p Latino pelicula completa, Guy Ritchie’s The Covenant (2023) AMZN 4K-HDR WEB-DL 2160p Latino descargar gratis, descargar Guy Ritchie’s The Covenant (2023) AMZN 4K-HDR WEB-DL 2160p Latino pelicula latino, Guy Ritchie’s The Covenant (2023) AMZN 4K-HDR WEB-DL 2160p Latino 1 link mega, Guy Ritchie’s The Covenant (2023) AMZN 4K-HDR WEB-DL 2160p Latino 1 link google drive, Guy Ritchie’s The Covenant (2023) AMZN 4K-HDR WEB-DL 2160p Latino hd 1080p latino.
Comentarios 0