×

¿Problemas para descargar con Mozilla, EDGE? Deshabilita la opción "Abrir vinculos en una pestaña nueva" tal como lo muestra ésta imagen.

Guten Tag, Ramón (2013) REMUX 1080p Latino-CMHDD

76 vistas

Información de Guten Tag, Ramón (2013) REMUX 1080p Latino-CMHDD

Datos de la película

  • Calidad: Full 1080p
  • Audio: Se especifica abajo de la Sinopsis
  • Subtitulos: Español Latino PGS
  • Resolución: 1920x1080p
  • Formato: MKV
  • Codec: H.264
  • Encoder: CinefiloCool
  • Mediainfo: Clic para Mostrar Datos Ver
  • Guten.Tag.Ramon.2013.Bluray.REMUX.1080p.AVC.Latino-CC@CMHDD.mkv
    Format                      : Matroska
    Format version              : Version 4
    File size                   : 33.9 GiB
    Duration                    : 2 h 0 min
    Overall bit rate mode       : Variable
    Overall bit rate            : 40.2 Mb/s
    Movie name                  : Guten Tag, Ramón (2013) CinemaniaHDD.Net
    Encoded date                : UTC 2024-02-13 05:35:52
    Writing application         : mkvmerge v56.1.0 ('My Friend') 64-bit
    Writing library             : libebml v1.4.2 + libmatroska v1.6.4
    Attachments                 : CINEMANIAHD.png

    Video
    ID                          : 1
    Format                      : AVC
    Format/Info                 : Advanced Video Codec
    Format profile              : High@L4.1
    Format settings             : CABAC / 4 Ref Frames
    Format settings, CABAC      : Yes
    Format settings, Reference  : 4 frames
    Codec ID                    : V_MPEG4/ISO/AVC
    Duration                    : 2 h 0 min
    Bit rate mode               : Variable
    Bit rate                    : 35.1 Mb/s
    Maximum bit rate            : 37.0 Mb/s
    Width                       : 1 920 pixels
    Height                      : 1 080 pixels
    Display aspect ratio        : 16:9
    Frame rate mode             : Constant
    Frame rate                  : 23.976 (24000/1001) FPS
    Color space                 : YUV
    Chroma subsampling          : 4:2:0
    Bit depth                   : 8 bits
    Scan type                   : Progressive
    Bits/(Pixel*Frame)          : 0.705
    Stream size                 : 29.6 GiB (87%)
    Title                       : REMUX HD1080p [CinemaniaHDD]
    Language                    : Spanish
    Default                     : Yes
    Forced                      : Yes

    Audio #1
    ID                          : 2
    Format                      : DTS
    Format/Info                 : Digital Theater Systems
    Codec ID                    : A_DTS
    Duration                    : 2 h 0 min
    Bit rate mode               : Constant
    Bit rate                    : 1 509 kb/s
    Channel(s)                  : 6 channels
    Channel layout              : C L R Ls Rs LFE
    Sampling rate               : 48.0 kHz
    Frame rate                  : 93.750 FPS (512 SPF)
    Bit depth                   : 24 bits
    Compression mode            : Lossy
    Stream size                 : 1.27 GiB (4%)
    Title                       : Español Latino Core DTS [CinemaniaHDD]
    Language                    : Spanish
    Default                     : Yes
    Forced                      : Yes

    Audio #2
    ID                          : 3
    Format                      : DTS XLL
    Format/Info                 : Digital Theater Systems
    Commercial name             : DTS-HD Master Audio
    Codec ID                    : A_DTS
    Duration                    : 2 h 0 min
    Bit rate mode               : Variable
    Bit rate                    : 3 654 kb/s
    Channel(s)                  : 6 channels
    Channel layout              : C L R Ls Rs LFE
    Sampling rate               : 48.0 kHz
    Frame rate                  : 93.750 FPS (512 SPF)
    Bit depth                   : 24 bits
    Compression mode            : Lossless
    Stream size                 : 3.08 GiB (9%)
    Title                       : Español Latino [CinemaniaHDD]
    Language                    : Spanish
    Default                     : No
    Forced                      : No

    Text #1
    ID                          : 4
    Format                      : PGS
    Muxing mode                 : zlib
    Codec ID                    : S_HDMV/PGS
    Codec ID/Info               : Picture based subtitle format used on BDs/HD-DVDs
    Duration                    : 1 h 57 min
    Bit rate                    : 10.1 kb/s
    Count of elements           : 1142
    Stream size                 : 8.51 MiB (0%)
    Title                       : Español-FORCED-PGS [CinemaniaHDD]
    Language                    : Spanish
    Default                     : No
    Forced                      : No

    Text #2
    ID                          : 5
    Format                      : PGS
    Muxing mode                 : zlib
    Codec ID                    : S_HDMV/PGS
    Codec ID/Info               : Picture based subtitle format used on BDs/HD-DVDs
    Duration                    : 1 h 58 min
    Bit rate                    : 11.6 kb/s
    Count of elements           : 1048
    Stream size                 : 9.80 MiB (0%)
    Title                       : Deutsch-FORCED-PGS [CinemaniaHDD]
    Language                    : German
    Default                     : No
    Forced                      : No

    Text #3
    ID                          : 6
    Format                      : PGS
    Muxing mode                 : zlib
    Codec ID                    : S_HDMV/PGS
    Codec ID/Info               : Picture based subtitle format used on BDs/HD-DVDs
    Duration                    : 1 h 51 min
    Bit rate                    : 20.4 kb/s
    Count of elements           : 2054
    Stream size                 : 16.3 MiB (0%)
    Title                       : Ingles-FORCED-PGS [CinemaniaHDD]
    Language                    : English
    Default                     : No
    Forced                      : No

    Text #4
    ID                          : 7
    Format                      : UTF-8
    Codec ID                    : S_TEXT/UTF8
    Codec ID/Info               : UTF-8 Plain Text
    Duration                    : 1 h 46 min
    Bit rate                    : 17 b/s
    Count of elements           : 570
    Stream size                 : 13.9 KiB (0%)
    Title                       : Español-FORZADOS-SRT [CinemaniaHDD]
    Language                    : Spanish
    Default                     : Yes
    Forced                      : Yes

    Menu
    00:00:00.000                : Chapter 01
    00:04:02.784                : Chapter 02
    00:08:24.587                : Chapter 03
    00:11:29.147                : Chapter 04
    00:16:08.426                : Chapter 05
    00:19:49.313                : Chapter 06
    00:26:58.659                : Chapter 07
    00:29:01.823                : Chapter 08
    00:32:31.158                : Chapter 09
    00:36:15.799                : Chapter 10
    00:40:06.613                : Chapter 11
    00:42:53.738                : Chapter 12
    00:46:31.455                : Chapter 13
    00:51:49.523                : Chapter 14
    00:56:49.197                : Chapter 15
    00:59:11.923                : Chapter 16
    01:04:47.842                : Chapter 17
    01:08:22.890                : Chapter 18
    01:13:45.171                : Chapter 19
    01:18:14.398                : Chapter 20
    01:20:55.350                : Chapter 21
    01:25:38.925                : Chapter 22
    01:33:53.378                : Chapter 23
    01:37:14.162                : Chapter 24
    01:41:25.746                : Chapter 25
    01:44:15.749                : Chapter 26
    01:47:47.002                : Chapter 27
    01:50:02.304                : Chapter 28
    01:52:22.444                : Chapter 29
    01:55:06.733                : Chapter 30

  • Peso: 33.9 GiB

Sinopsis

Descargar Guten Tag, Ramón (2013) REMUX 1080p Latino-CMHDD. Buenos días, Ramón, narra la alentadora historia de un joven proveniente de un pequeño pueblo de México que viaja a Alemania para ayudar a su familia y, una vez allí, se encuentra varado, sin donde dormir y sin dinero. Su lucha por sobrevivir termina cuando conoce a Ruth, una solitaria anciana con la que desarrolla una conmovedora e impresionante amistad que transcenderá fronteras y prejuicios.

Audio Español Latino DTS-HD + DTS 5.1 Bluray

Ficha técnica

Video trailer de la película

Enlaces de descarga

Rip de Bluray

Descargar Guten Tag, Ramón (2013) REMUX 1080p Latino-CMHDD


Aportes de DPeliculasHDmega la pass es:dpeliculashdmega.org Aportes de CinemaniaHD la pass es:cinemaniahdd.com Aportes recientes:cinemaniahdd.net
Guardado en : Drama , Remux

Películas relacionadas

descargar Guten Tag, Ramón (2013) REMUX 1080p Latino-CMHDD Full 1080p 1080p gratis, Guten Tag, Ramón (2013) REMUX 1080p Latino-CMHDD Full 1080p mega 1 link, Guten Tag, Ramón (2013) REMUX 1080p Latino-CMHDD Full 1080p pelicula completa, descargar Guten Tag, Ramón (2013) REMUX 1080p Latino-CMHDD Full 1080p gratis en mega.

Guten Tag, Ramón (2013) REMUX 1080p Latino-CMHDD pelicula full hd, Guten Tag, Ramón (2013) REMUX 1080p Latino-CMHDD mega latino, Guten Tag, Ramón (2013) REMUX 1080p Latino-CMHDD 4k latino, Guten Tag, Ramón (2013) REMUX 1080p Latino-CMHDD pelicula completa, Guten Tag, Ramón (2013) REMUX 1080p Latino-CMHDD descargar gratis, descargar Guten Tag, Ramón (2013) REMUX 1080p Latino-CMHDD pelicula latino, Guten Tag, Ramón (2013) REMUX 1080p Latino-CMHDD 1 link mega, Guten Tag, Ramón (2013) REMUX 1080p Latino-CMHDD 1 link google drive, Guten Tag, Ramón (2013) REMUX 1080p Latino-CMHDD hd 1080p latino.
Comentarios 0