×

¿Problemas para descargar con Mozilla, EDGE? Deshabilita la opción "Abrir vinculos en una pestaña nueva" tal como lo muestra ésta imagen.

Guten Tag, Ramón (2013) Full HD 1080p Latino-CMHDD

56 vistas

Información de Guten Tag, Ramón (2013) Full HD 1080p Latino-CMHDD

Datos de la película

  • Calidad: Full 1080p
  • Audio: Español Latino DTS 5.1 BLURAY
  • Subtitulos: Español Latino SRT
  • Resolución: 1920x1080p
  • Formato: MKV
  • Codec: H.264
  • Encoder: CinefiloCool
  • Mediainfo: Clic para Mostrar Datos Ver
  • Guten.Tag.Ramon.2013.Bluray.FullHD.1080p.x264.Latino-CC@CMHDD.mkv
    Format                      : Matroska
    Format version              : Version 4
    File size                   : 3.25 GiB
    Duration                    : 2 h 0 min
    Overall bit rate            : 3 855 kb/s
    Movie name                  : Guten Tag, Ramón (2013) CinemaniaHDD.Net
    Encoded date                : UTC 2024-02-15 03:53:44
    Writing application         : mkvmerge v56.1.0 ('My Friend') 64-bit
    Writing library             : libebml v1.4.2 + libmatroska v1.6.4
    Attachments                 : CINEMANIAHD.png

    Video
    ID                          : 1
    Format                      : AVC
    Format/Info                 : Advanced Video Codec
    Format profile              : High@L4.1
    Format settings             : CABAC / 4 Ref Frames
    Format settings, CABAC      : Yes
    Format settings, Reference  : 4 frames
    Codec ID                    : V_MPEG4/ISO/AVC
    Duration                    : 2 h 0 min
    Bit rate                    : 2 344 kb/s
    Width                       : 1 920 pixels
    Height                      : 1 080 pixels
    Display aspect ratio        : 16:9
    Frame rate mode             : Constant
    Frame rate                  : 23.976 (24000/1001) FPS
    Color space                 : YUV
    Chroma subsampling          : 4:2:0
    Bit depth                   : 8 bits
    Scan type                   : Progressive
    Bits/(Pixel*Frame)          : 0.047
    Stream size                 : 1.98 GiB (61%)
    Title                       : Full HD1080p [CinemaniaHDD]
    Writing library             : x264 core 163 r3059 b684ebe0
    Encoding settings           : cabac=1 / ref=4 / deblock=1:0:0 / analyse=0x3:0x133 / me=tesa / subme=11 / psy=1 / psy_rd=1.00:0.00 / mixed_ref=1 / me_range=24 / chroma_me=1 / trellis=2 / 8x8dct=1 / cqm=0 / deadzone=21,11 / fast_pskip=0 / chroma_qp_offset=-2 / threads=24 / lookahead_threads=6 / sliced_threads=0 / nr=0 / decimate=1 / interlaced=0 / bluray_compat=0 / constrained_intra=0 / bframes=16 / b_pyramid=2 / b_adapt=2 / b_bias=0 / direct=3 / weightb=1 / open_gop=0 / weightp=2 / keyint=240 / keyint_min=24 / scenecut=40 / intra_refresh=0 / rc_lookahead=60 / rc=crf / mbtree=1 / crf=20.0 / qcomp=0.60 / qpmin=0 / qpmax=69 / qpstep=4 / vbv_maxrate=62500 / vbv_bufsize=78125 / crf_max=0.0 / nal_hrd=none / filler=0 / ip_ratio=1.40 / aq=1:1.00
    Default                     : Yes
    Forced                      : Yes
    Color range                 : Limited
    Color primaries             : BT.709
    Transfer characteristics    : BT.709
    Matrix coefficients         : BT.709

    Audio
    ID                          : 2
    Format                      : DTS
    Format/Info                 : Digital Theater Systems
    Codec ID                    : A_DTS
    Duration                    : 2 h 0 min
    Bit rate mode               : Constant
    Bit rate                    : 1 509 kb/s
    Channel(s)                  : 6 channels
    Channel layout              : C L R Ls Rs LFE
    Sampling rate               : 48.0 kHz
    Frame rate                  : 93.750 FPS (512 SPF)
    Bit depth                   : 24 bits
    Compression mode            : Lossy
    Stream size                 : 1.27 GiB (39%)
    Title                       : Español Latino [CinemaniaHDD]
    Language                    : Spanish
    Default                     : Yes
    Forced                      : Yes

    Text
    ID                          : 3
    Format                      : UTF-8
    Codec ID                    : S_TEXT/UTF8
    Codec ID/Info               : UTF-8 Plain Text
    Duration                    : 1 h 46 min
    Bit rate                    : 17 b/s
    Count of elements           : 570
    Stream size                 : 13.9 KiB (0%)
    Title                       : Español-FORZADOS-SRT [CinemaniaHDD]
    Language                    : Spanish
    Default                     : Yes
    Forced                      : Yes

    Menu
    00:00:00.000                : Chapter 01
    00:04:02.784                : Chapter 02
    00:08:24.587                : Chapter 03
    00:11:29.147                : Chapter 04
    00:16:08.426                : Chapter 05
    00:19:49.313                : Chapter 06
    00:26:58.659                : Chapter 07
    00:29:01.823                : Chapter 08
    00:32:31.158                : Chapter 09
    00:36:15.799                : Chapter 10
    00:40:06.613                : Chapter 11
    00:42:53.738                : Chapter 12
    00:46:31.455                : Chapter 13
    00:51:49.523                : Chapter 14
    00:56:49.197                : Chapter 15
    00:59:11.923                : Chapter 16
    01:04:47.842                : Chapter 17
    01:08:22.890                : Chapter 18
    01:13:45.171                : Chapter 19
    01:18:14.398                : Chapter 20
    01:20:55.350                : Chapter 21
    01:25:38.925                : Chapter 22
    01:33:53.378                : Chapter 23
    01:37:14.162                : Chapter 24
    01:41:25.746                : Chapter 25
    01:44:15.749                : Chapter 26
    01:47:47.002                : Chapter 27
    01:50:02.304                : Chapter 28
    01:52:22.444                : Chapter 29
    01:55:06.733                : Chapter 30

  • Peso: 3.25 GiB

Sinopsis

Descargar Guten Tag, Ramón (2013) Full HD 1080p Latino-CMHDD. Buenos días, Ramón, narra la alentadora historia de un joven proveniente de un pequeño pueblo de México que viaja a Alemania para ayudar a su familia y, una vez allí, se encuentra varado, sin donde dormir y sin dinero. Su lucha por sobrevivir termina cuando conoce a Ruth, una solitaria anciana con la que desarrolla una conmovedora e impresionante amistad que transcenderá fronteras y prejuicios.

Ficha técnica

Video trailer de la película

Enlaces de descarga

Rip de Bluray

Descargar Guten Tag, Ramón (2013) Full HD 1080p Latino-CMHDD




Aportes de DPeliculasHDmega la pass es:dpeliculashdmega.org Aportes de CinemaniaHD la pass es:cinemaniahdd.com Aportes recientes:cinemaniahdd.net

Películas relacionadas

descargar Guten Tag, Ramón (2013) Full HD 1080p Latino-CMHDD Full 1080p 1080p gratis, Guten Tag, Ramón (2013) Full HD 1080p Latino-CMHDD Full 1080p mega 1 link, Guten Tag, Ramón (2013) Full HD 1080p Latino-CMHDD Full 1080p pelicula completa, descargar Guten Tag, Ramón (2013) Full HD 1080p Latino-CMHDD Full 1080p gratis en mega.

Guten Tag, Ramón (2013) Full HD 1080p Latino-CMHDD pelicula full hd, Guten Tag, Ramón (2013) Full HD 1080p Latino-CMHDD mega latino, Guten Tag, Ramón (2013) Full HD 1080p Latino-CMHDD 4k latino, Guten Tag, Ramón (2013) Full HD 1080p Latino-CMHDD pelicula completa, Guten Tag, Ramón (2013) Full HD 1080p Latino-CMHDD descargar gratis, descargar Guten Tag, Ramón (2013) Full HD 1080p Latino-CMHDD pelicula latino, Guten Tag, Ramón (2013) Full HD 1080p Latino-CMHDD 1 link mega, Guten Tag, Ramón (2013) Full HD 1080p Latino-CMHDD 1 link google drive, Guten Tag, Ramón (2013) Full HD 1080p Latino-CMHDD hd 1080p latino.
Comentarios 0