×

¿Problemas para descargar con Mozilla, EDGE? Deshabilita la opción "Abrir vinculos en una pestaña nueva" tal como lo muestra ésta imagen.

Los viajes de Gulliver (2010) REMUX 1080p Latino

355 vistas

Información de Los viajes de Gulliver (2010) REMUX 1080p Latino

Datos de la película

  • Calidad: Full 1080p
  • Audio: Español Latino AC3 5.1 BLURAY - Ingles DTS 5.1 BLURAY
  • Subtitulos: Español Latino PGS - Ingles PGS
  • Resolución: 1920x1080p
  • Formato: MKV
  • Codec: H.264
  • Encoder: CinefiloCool
  • Mediainfo: Clic para Mostrar Datos Ver
  • Los Viajes De Gulliver (2010) REMUX 1080p Latino-CMHDD.mkv
    Format                      : Matroska
    Format version              : Version 4
    File size                   : 17.8 GiB
    Duration                    : 1 h 24 min
    Overall bit rate mode       : Variable
    Overall bit rate            : 30.1 Mb/s
    Movie name                  : Gulliver’s Travels (2010) CinemaniaHDD.Net
    Encoded date                : UTC 2022-02-14 21:38:47
    Writing application         : mkvmerge v56.1.0 ('My Friend') 64-bit
    Writing library             : libebml v1.4.2 + libmatroska v1.6.4
    Attachments                 : CINEMANIAHD.png

    Video
    ID                          : 1
    ID in the original source m : 4113 (0x1011)
    Format                      : AVC
    Format/Info                 : Advanced Video Codec
    Format profile              : High@L4.1
    Format settings             : CABAC / 2 Ref Frames
    Format settings, CABAC      : Yes
    Format settings, Reference  : 2 frames
    Codec ID                    : V_MPEG4/ISO/AVC
    Duration                    : 1 h 24 min
    Bit rate mode               : Variable
    Bit rate                    : 25.9 Mb/s
    Width                       : 1 920 pixels
    Height                      : 1 080 pixels
    Display aspect ratio        : 16:9
    Frame rate mode             : Constant
    Frame rate                  : 23.976 (24000/1001) FPS
    Color space                 : YUV
    Chroma subsampling          : 4:2:0
    Bit depth                   : 8 bits
    Scan type                   : Progressive
    Bits/(Pixel*Frame)          : 0.521
    Stream size                 : 15.3 GiB (86%)
    Title                       : REMUX HD1080p [CinemaniaHDD]
    Default                     : Yes
    Forced                      : Yes
    Original source medium      : Blu-ray

    Audio #1
    ID                          : 2
    ID in the original source m : 4353 (0x1101)
    Format                      : AC-3
    Format/Info                 : Audio Coding 3
    Commercial name             : Dolby Digital
    Codec ID                    : A_AC3
    Duration                    : 1 h 24 min
    Bit rate mode               : Constant
    Bit rate                    : 448 kb/s
    Channel(s)                  : 6 channels
    Channel layout              : L R C LFE Ls Rs
    Sampling rate               : 48.0 kHz
    Frame rate                  : 31.250 FPS (1536 SPF)
    Compression mode            : Lossy
    Stream size                 : 271 MiB (1%)
    Title                       : Español Latino [CinemaniaHDD]
    Language                    : Spanish
    Service kind                : Complete Main
    Default                     : Yes
    Forced                      : Yes
    Original source medium      : Blu-ray

    Audio #2
    ID                          : 3
    ID in the original source m : 4352 (0x1100)
    Format                      : DTS XLL
    Format/Info                 : Digital Theater Systems
    Commercial name             : DTS-HD Master Audio
    Codec ID                    : A_DTS
    Duration                    : 1 h 24 min
    Bit rate mode               : Variable
    Bit rate                    : 3 748 kb/s
    Channel(s)                  : 6 channels
    Channel layout              : C L R Ls Rs LFE
    Sampling rate               : 48.0 kHz
    Frame rate                  : 93.750 FPS (512 SPF)
    Bit depth                   : 24 bits
    Compression mode            : Lossless
    Stream size                 : 2.22 GiB (12%)
    Title                       : Ingles [CinemaniaHDD]
    Language                    : English
    Default                     : No
    Forced                      : No
    Original source medium      : Blu-ray

    Text #1
    ID                          : 4
    Format                      : PGS
    Muxing mode                 : zlib
    Codec ID                    : S_HDMV/PGS
    Codec ID/Info               : Picture based subtitle format used on BDs/HD-DVDs
    Duration                    : 1 h 14 min
    Bit rate                    : 378 b/s
    Count of elements           : 30
    Stream size                 : 206 KiB (0%)
    Title                       : Forzados-PGS [CinemaniaHDD]
    Language                    : Spanish
    Default                     : No
    Forced                      : No

    Text #2
    ID                          : 5
    ID in the original source m : 4609 (0x1201)
    Format                      : PGS
    Muxing mode                 : zlib
    Codec ID                    : S_HDMV/PGS
    Codec ID/Info               : Picture based subtitle format used on BDs/HD-DVDs
    Duration                    : 1 h 23 min
    Bit rate                    : 36.4 kb/s
    Count of elements           : 2604
    Stream size                 : 21.8 MiB (0%)
    Title                       : Español-PGS [CinemaniaHDD]
    Language                    : Spanish
    Default                     : No
    Forced                      : No
    Original source medium      : Blu-ray

    Text #3
    ID                          : 6
    ID in the original source m : 4608 (0x1200)
    Format                      : PGS
    Muxing mode                 : zlib
    Codec ID                    : S_HDMV/PGS
    Codec ID/Info               : Picture based subtitle format used on BDs/HD-DVDs
    Duration                    : 1 h 22 min
    Bit rate                    : 41.4 kb/s
    Count of elements           : 2992
    Stream size                 : 24.5 MiB (0%)
    Title                       : Ingles-PGS [CinemaniaHDD]
    Language                    : English
    Default                     : No
    Forced                      : No
    Original source medium      : Blu-ray

    Text #4
    ID                          : 7
    Format                      : UTF-8
    Codec ID                    : S_TEXT/UTF8
    Codec ID/Info               : UTF-8 Plain Text
    Duration                    : 1 h 19 min
    Bit rate                    : 0 b/s
    Count of elements           : 19
    Stream size                 : 496 Bytes (0%)
    Title                       : Forzados-SRT [CinemaniaHDD]
    Language                    : Spanish
    Default                     : Yes
    Forced                      : Yes

    Text #5
    ID                          : 8
    Format                      : UTF-8
    Codec ID                    : S_TEXT/UTF8
    Codec ID/Info               : UTF-8 Plain Text
    Duration                    : 1 h 19 min
    Bit rate                    : 67 b/s
    Count of elements           : 1301
    Stream size                 : 38.9 KiB (0%)
    Title                       : Español-SRT [CinemaniaHDD]
    Language                    : Spanish
    Default                     : No
    Forced                      : No

    Menu
    00:00:00.000                : Chapter 01
    00:03:06.352                : Chapter 02
    00:06:35.311                : Chapter 03
    00:10:05.688                : Chapter 04
    00:12:32.918                : Chapter 05
    00:14:30.703                : Chapter 06
    00:16:29.113                : Chapter 07
    00:20:13.420                : Chapter 08
    00:23:03.548                : Chapter 09
    00:26:02.269                : Chapter 10
    00:29:24.679                : Chapter 11
    00:34:32.528                : Chapter 12
    00:38:50.119                : Chapter 13
    00:42:48.440                : Chapter 14
    00:48:49.801                : Chapter 15
    00:52:30.272                : Chapter 16
    00:55:11.683                : Chapter 17
    01:00:36.799                : Chapter 18
    01:05:50.905                : Chapter 19
    01:08:17.176                : Chapter 20
    01:10:59.838                : Chapter 21
    01:14:45.147                : Chapter 22
    01:16:27.416                : Chapter 23
    01:20:10.764                : Chapter 24

  • Peso: 17.8 GiB

Sinopsis

Descargar Los viajes de Gulliver (2010) REMUX 1080p Latino. Lemuel Gulliver (Jack Black), un aspirante a escritor que trabaja como repartidor en un importante periódico de Nueva York, sueña con escribir libros de viajes. Toma entonces la decisión de navegar hacia al Triángulo de las Bermudas, pero una terrible tormenta lo arrastra hasta una isla pérdida que está habitada por personas diminutas, los liliputienses. Después de un comienzo no muy amistoso, el gigante Gulliver se convierte en fuente de inspiración y confianza para sus diminutos amigos. Así, bajo sus órdenes, los liliputienses consiguen una gran victoria sobre sus enemigos de la isla vecina. Sin embargo, Gulliver aún tendrá que saldar cuentas con sus propios defectos para poder salir, por fin, de su limitado mundo

Disponible Solo Para VIP!!!

Ficha técnica

Video trailer de la película

Enlaces de descarga

Rip de Bluray

Descargar Los viajes de Gulliver (2010) REMUX 1080p Latino


Aportes de DPeliculasHDmega la pass es:dpeliculashdmega.org Aportes de CinemaniaHD la pass es:cinemaniahdd.com
Guardado en : Aventura , Comedia , Familia , Fantasía , Remux

Películas relacionadas

descargar Los viajes de Gulliver (2010) REMUX 1080p Latino Full 1080p 1080p gratis, Los viajes de Gulliver (2010) REMUX 1080p Latino Full 1080p mega 1 link, Los viajes de Gulliver (2010) REMUX 1080p Latino Full 1080p pelicula completa, descargar Los viajes de Gulliver (2010) REMUX 1080p Latino Full 1080p gratis en mega.

Los viajes de Gulliver (2010) REMUX 1080p Latino pelicula full hd, Los viajes de Gulliver (2010) REMUX 1080p Latino mega latino, Los viajes de Gulliver (2010) REMUX 1080p Latino 4k latino, Los viajes de Gulliver (2010) REMUX 1080p Latino pelicula completa, Los viajes de Gulliver (2010) REMUX 1080p Latino descargar gratis, descargar Los viajes de Gulliver (2010) REMUX 1080p Latino pelicula latino, Los viajes de Gulliver (2010) REMUX 1080p Latino 1 link mega, Los viajes de Gulliver (2010) REMUX 1080p Latino 1 link google drive, Los viajes de Gulliver (2010) REMUX 1080p Latino hd 1080p latino.
Comentarios 0