Guerra de Vampiros (2019) Temporada 1 NF 1080p Latino

650 vistas
1 estrella2 estrellas3 estrellas4 estrellas5 estrellas (2 votos, promedio: 4,50 de 5)
Cargando…

Información de Guerra de Vampiros (2019) Temporada 1 NF 1080p Latino

Datos de la película

  • Calidad: WEBDL
  • Audio: Español Latino AC3 5.1 Netflix - Ingles AC3 5.1 Netflix
  • Subtitulos: Español Latino SRT- FORZADOS SRT
  • Resolución: 1920x1080
  • Formato: MKV
  • Codec: H.264
  • Encoder: Chesse92
  • Mediainfo: Clic para Mostrar Datos Ver
  • Guerra de vampiros S01E01.mkv
    Format                      : Matroska
    Format version              : Version 4
    File size                   : 1.04 GiB
    Duration                    : 47 min 50 s
    Overall bit rate mode       : Variable
    Overall bit rate            : 3 107 kb/s
    Movie name                  : Guerra de vampiros S01E01
    Encoded date                : UTC 2019-03-08 09:04:12 / UTC 2019-02-26 20:03:35
    Writing application         : mkvmerge v11.0.0 ('Alive') 64bit
    Writing library             : libebml v1.3.4 + libmatroska v1.4.5 / Lavf58.0.0

    Video
    ID                          : 1
    Format                      : AVC
    Format/Info                 : Advanced Video Codec
    Format profile              : [email protected]
    Format settings             : CABAC / 3 Ref Frames
    Format settings, CABAC      : Yes
    Format settings, ReFrames   : 3 frames
    Codec ID                    : V_MPEG4/ISO/AVC
    Duration                    : 47 min 50 s
    Bit rate mode               : Variable
    Bit rate                    : 2 870 kb/s
    Maximum bit rate            : 4 305 kb/s
    Width                       : 1 920 pixels
    Height                      : 1 080 pixels
    Display aspect ratio        : 16:9
    Frame rate mode             : Constant
    Frame rate                  : 25.000 FPS
    Color space                 : YUV
    Chroma subsampling          : 4:2:0
    Bit depth                   : 8 bits
    Scan type                   : Progressive
    Bits/(Pixel*Frame)          : 0.055
    Stream size                 : 954 MiB (90%)
    Title                       : CinemaniaHDD
    Writing library             : x264 core 148 r2715 7e75228
    Encoding settings           : cabac=1 / ref=3 / deblock=1:0:0 / analyse=0x1:0x111 / me=umh / subme=10 / psy=1 / psy_rd=1.00:0.00 / mixed_ref=1 / me_range=24 / chroma_me=1 / trellis=2 / 8x8dct=0 / cqm=0 / deadzone=21,11 / fast_pskip=1 / chroma_qp_offset=-2 / threads=8 / lookahead_threads=1 / sliced_threads=0 / nr=0 / decimate=1 / interlaced=0 / bluray_compat=0 / stitchable=1 / constrained_intra=0 / bframes=2 / b_pyramid=0 / b_adapt=2 / b_bias=0 / direct=3 / weightb=1 / open_gop=0 / weightp=2 / keyint=50 / keyint_min=26 / scenecut=0 / intra_refresh=0 / rc_lookahead=50 / rc=2pass / mbtree=1 / bitrate=2870 / ratetol=1.0 / qcomp=0.50 / qpmin=6 / qpmax=51 / qpstep=4 / cplxblur=20.0 / qblur=0.5 / vbv_maxrate=4305 / vbv_bufsize=5740 / nal_hrd=vbr / filler=0 / ip_ratio=1.40 / aq=1:1.00
    Default                     : Yes
    Forced                      : No
    Statistics Tags Issue       : mkvmerge v11.0.0 ('Alive') 64bit 2019-03-08 09:04:12 / mkvmerge v11.0.0 ('Alive') 64bit 2019-03-08 09:04:12 / UTC 2019-02-26 20:03:35
    FromStats_BitRate           : 2848428
    FromStats_Duration          : 00:47:50.360000000
    FromStats_FrameCount        : 71759
    FromStats_StreamSize        : 1022001851

    Audio #1
    ID                          : 2
    Format                      : E-AC-3
    Format/Info                 : Enhanced AC-3
    Commercial name             : Dolby Digital Plus
    Codec ID                    : A_EAC3
    Duration                    : 47 min 50 s
    Bit rate mode               : Constant
    Bit rate                    : 128 kb/s
    Channel(s)                  : 2 channels
    Channel layout              : L R
    Sampling rate               : 48.0 kHz
    Frame rate                  : 31.250 FPS (1536 SPF)
    Compression mode            : Lossy
    Stream size                 : 43.8 MiB (4%)
    Title                       : Español latino [CinemaniaHDD]
    Language                    : Spanish
    Service kind                : Complete Main
    Default                     : Yes
    Forced                      : No
    Encoded date                : UTC 2019-02-26 21:17:47
    Statistics Tags Issue       : mkvmerge v11.0.0 ('Alive') 64bit 2019-03-08 09:04:12 / mkvmerge v11.0.0 ('Alive') 64bit 2019-03-08 09:04:12 / UTC 2019-02-26 20:03:35
    FromStats_BitRate           : 128000
    FromStats_Duration          : 00:47:50.432000000
    FromStats_FrameCount        : 89701
    FromStats_StreamSize        : 45926912

    Audio #2
    ID                          : 3
    Format                      : E-AC-3
    Format/Info                 : Enhanced AC-3
    Commercial name             : Dolby Digital Plus
    Codec ID                    : A_EAC3
    Duration                    : 47 min 50 s
    Bit rate mode               : Constant
    Bit rate                    : 128 kb/s
    Channel(s)                  : 2 channels
    Channel layout              : L R
    Sampling rate               : 48.0 kHz
    Frame rate                  : 31.250 FPS (1536 SPF)
    Compression mode            : Lossy
    Stream size                 : 43.8 MiB (4%)
    Title                       : Inglés [CinemaniaHDD]
    Language                    : English
    Service kind                : Complete Main
    Default                     : No
    Forced                      : No
    Encoded date                : UTC 2019-02-26 20:03:35
    Statistics Tags Issue       : mkvmerge v11.0.0 ('Alive') 64bit 2019-03-08 09:04:12 / mkvmerge v11.0.0 ('Alive') 64bit 2019-03-08 09:04:12 / UTC 2019-02-26 20:03:35
    FromStats_BitRate           : 128000
    FromStats_Duration          : 00:47:50.432000000
    FromStats_FrameCount        : 89701
    FromStats_StreamSize        : 45926912

    Text #1
    ID                          : 4
    Format                      : UTF-8
    Codec ID                    : S_TEXT/UTF8
    Codec ID/Info               : UTF-8 Plain Text
    Title                       : Forzados [CinemaniaHDD]
    Language                    : Spanish
    Default                     : Yes
    Forced                      : Yes
    Statistics Tags Issue       : mkvmerge v11.0.0 ('Alive') 64bit 2019-03-08 09:04:12 / mkvmerge v11.0.0 ('Alive') 64bit 2019-03-08 09:04:12 / UTC 2019-02-26 20:03:35
    FromStats_BitRate           : 3
    FromStats_Duration          : 00:39:24.800000000
    FromStats_FrameCount        : 24
    FromStats_StreamSize        : 1136

    Text #2
    ID                          : 5
    Format                      : UTF-8
    Codec ID                    : S_TEXT/UTF8
    Codec ID/Info               : UTF-8 Plain Text
    Title                       : Español latino [CinemaniaHDD]
    Language                    : Spanish
    Default                     : No
    Forced                      : No
    Statistics Tags Issue       : mkvmerge v11.0.0 ('Alive') 64bit 2019-03-08 09:04:12 / mkvmerge v11.0.0 ('Alive') 64bit 2019-03-08 09:04:12 / UTC 2019-02-26 20:03:35
    FromStats_BitRate           : 30
    FromStats_Duration          : 00:44:34.240000000
    FromStats_FrameCount        : 306
    FromStats_StreamSize        : 10082

  • Peso: 1GB Aproximado por capitulo (7.34 GB Total)

Sinopsis

Mia es una vampira, sueña con volverse humana de nuevo. La película se estrenará en el mes de mayo de este año, en la que participará en el programa de televisión de la saga Crepúsculo. Así, el camino de los dos acaba cruzándose en una discoteca de lujo en Estambul.

Ficha técnica

  • Titulo original: Immortals
  • Fecha de lanzamiento: 06-09-2018 (TR)
  • Género: Drama, Sci-Fi & Fantasy, Series
  • Puntuación: 4.5 2 votos
  • Duración:
    0h 45m

Video trailer de la película

Enlaces de descarga

Rip de Bluray

Descargar Guerra de Vampiros (2019) Temporada 1 NF 1080p Latino




Aportes de DPeliculasHDmega la pass es:dpeliculashdmega.org Aportes de CinemaniaHD la pass es:cinemaniahdd.com
Guardado en : Drama , Sci-Fi & Fantasy , Series

Películas relacionadas

  • Las Dos Reinas (2018) 4K UHD HDR Latino

    2018
    Las Dos Reinas (2018) 4K UHD HDR Latino

    0.0 2h 5m 2018

    Descargar Las Dos Reinas (2018) 4K UHD HDR Latino, Mega, Google Drive. Dos mujeres rivales en el poder...

    Director: Josie Rourke

    Género: 4K HDR

    Actores: Thom Petty

  • The Mule (2018) 1080p Latino

    2018
    The Mule (2018) 1080p Latino

    0.0 1h 56m 2018

    A Earl Stone (Eastwood), un octogenario que está en quiebra, solo, y que se enfrenta a la ejecución...

    Director: Clint Eastwood

    Género: Crimen

    Actores: Victor Rasuk

  • The mule (2018) WEB-DL 1080p Latino

    2018
    The mule (2018) WEB-DL 1080p Latino

    0.0 1h 56m 2018

    A Earl Stone (Eastwood), un octogenario que está en quiebra, solo, y que se enfrenta a la ejecución...

    Director: Clint Eastwood

    Género: Crimen

    Actores: Victor Rasuk

  • Nace Una Estrella (2018) 4K UHD HDR Latino

    2018
    Nace Una Estrella (2018) 4K UHD HDR Latino

    0.0 2h 25m 2018

    Descargar Nace Una Estrella (2018) 4K UHD HDR Latino, Mega, Google Drive. Jackson Maine es una estrella...

    Director: Bradley Cooper

    Género: 4K HDR

    Actores: Willam Belli

Comentarios 0