Guerra de papás 2 (2017) Full 1080p Latino

2.922 vistas
1 estrella2 estrellas3 estrellas4 estrellas5 estrellas (3 votos, promedio: 5,00 de 5)
Cargando…

Información de Guerra de papás 2 (2017) Full 1080p Latino

Datos de la película

  • Calidad: Full 1080p
  • Audio: Español Latino AC3 5.1 BLURAY - Ingles AC3 5.1 BLURAY
  • Subtitulos: Español Latino PGS - Ingles PGS
  • Resolución: 1920X1080
  • Formato: MKV
  • Codec: H.264
  • Encoder: Dracarys
  • Mediainfo: Clic para Mostrar Datos Ver
  • Format                                   : Matroska
    Format version                           : Version 4 / Version 2
    File size                                : 5.15 GiB
    Duration                                 : 1 h 39 min
    Overall bit rate                         : 7 400 kb/s
    Movie name                               : CinemaniaHDD.com
    Encoded date                             : UTC 2018-02-07 18:38:38 / UTC 2018-02-07T15:21:59Z
    Writing application                      : mkvmerge v15.0.0 ('Duel with the Devil') 64-bit
    Writing library                          : libebml v1.3.5 + libmatroska v1.4.5 / Lavf57.7.2

    Video
    ID                                       : 1
    Format                                   : AVC
    Format/Info                              : Advanced Video Codec
    Format profile                           : [email protected]
    Format settings                          : CABAC / 4 Ref Frames
    Format settings, CABAC                   : Yes
    Format settings, RefFrames               : 4 frames
    Codec ID                                 : V_MPEG4/ISO/AVC
    Duration                                 : 1 h 39 min
    Bit rate                                 : 5 972 kb/s
    Width                                    : 1 920 pixels
    Height                                   : 1 080 pixels
    Display aspect ratio                     : 16:9
    Frame rate mode                          : Constant
    Frame rate                               : 23.976 (24000/1001) FPS
    Color space                              : YUV
    Chroma subsampling                       : 4:2:0
    Bit depth                                : 8 bits
    Scan type                                : Progressive
    Bits/(Pixel*Frame)                       : 0.120
    Stream size                              : 4.16 GiB (81%)
    Title                                    : Guerra de papás 2 (2017) Full 1080p Latino
    Writing library                          : x264 core 148 r2708 86b7198
    Encoding settings                        : cabac=1 / ref=4 / deblock=1:0:0 / analyse=0x3:0x133 / me=esa / subme=10 / psy=1 / psy_rd=1.00:0.00 / mixed_ref=1 / me_range=24 / chroma_me=1 / trellis=2 / 8x8dct=1 / cqm=0 / deadzone=21,11 / fast_pskip=1 / chroma_qp_offset=-2 / threads=34 / lookahead_threads=5 / sliced_threads=0 / nr=0 / decimate=1 / interlaced=0 / bluray_compat=0 / constrained_intra=0 / bframes=8 / b_pyramid=2 / b_adapt=2 / b_bias=0 / direct=3 / weightb=1 / open_gop=0 / weightp=2 / keyint=240 / keyint_min=24 / scenecut=40 / intra_refresh=0 / rc_lookahead=60 / rc=crf / mbtree=1 / crf=20.0 / qcomp=0.60 / qpmin=0 / qpmax=69 / qpstep=4 / vbv_maxrate=62500 / vbv_bufsize=78125 / crf_max=0.0 / nal_hrd=none / filler=0 / ip_ratio=1.40 / aq=1:1.00
    Language                                 : Japanese
    Default                                  : Yes
    Forced                                   : No
    Color range                              : Limited
    Color primaries                          : BT.709
    Transfer characteristics                 : BT.709
    Matrix coefficients                      : BT.709
    Statistics Tags Issue                    : mkvmerge v15.0.0 ('Duel with the Devil') 64-bit 2018-02-07 18:38:38 / mkvmerge v15.0.0 ('Duel with the Devil') 64-bit 2018-02-07 18:38:38 / UTC 2018-02-07T15:21:59Z
    FromStats_BitRate                        : 6084007
    FromStats_Duration                       : 01:39:41.935000000
    FromStats_FrameCount                     : 143423
    FromStats_StreamSize                     : 4549267196

    Audio #1
    ID                                       : 2
    Format                                   : AC-3
    Format/Info                              : Audio Coding 3
    Format settings, Endianness              : Big
    Codec ID                                 : A_AC3
    Duration                                 : 1 h 39 min
    Bit rate mode                            : Constant
    Bit rate                                 : 640 kb/s
    Channel(s)                               : 6 channels
    Channel positions                        : Front: L C R, Side: L R, LFE
    Sampling rate                            : 48.0 kHz
    Frame rate                               : 31.250 FPS (1536 SPF)
    Bit depth                                : 16 bits
    Compression mode                         : Lossy
    Stream size                              : 456 MiB (9%)
    Language                                 : Spanish
    Service kind                             : Complete Main
    Default                                  : Yes
    Forced                                   : No
    Statistics Tags Issue                    : mkvmerge v15.0.0 ('Duel with the Devil') 64-bit 2018-02-07 18:38:38 / mkvmerge v15.0.0 ('Duel with the Devil') 64-bit 2018-02-07 18:38:38 / UTC 2018-02-07T15:21:59Z
    FromStats_BitRate                        : 640000
    FromStats_Duration                       : 01:39:41.952000000
    FromStats_FrameCount                     : 186936
    FromStats_StreamSize                     : 478556160

    Audio #2
    ID                                       : 3
    Format                                   : AC-3
    Format/Info                              : Audio Coding 3
    Format settings, Endianness              : Big
    Codec ID                                 : A_AC3
    Duration                                 : 1 h 39 min
    Bit rate mode                            : Constant
    Bit rate                                 : 640 kb/s
    Channel(s)                               : 6 channels
    Channel positions                        : Front: L C R, Side: L R, LFE
    Sampling rate                            : 48.0 kHz
    Frame rate                               : 31.250 FPS (1536 SPF)
    Bit depth                                : 16 bits
    Compression mode                         : Lossy
    Stream size                              : 456 MiB (9%)
    Language                                 : English
    Service kind                             : Complete Main
    Default                                  : No
    Forced                                   : No
    Statistics Tags Issue                    : mkvmerge v15.0.0 ('Duel with the Devil') 64-bit 2018-02-07 18:38:38 / mkvmerge v15.0.0 ('Duel with the Devil') 64-bit 2018-02-07 18:38:38 / UTC 2018-02-07T15:21:59Z
    FromStats_BitRate                        : 640000
    FromStats_Duration                       : 01:39:41.952000000
    FromStats_FrameCount                     : 186936
    FromStats_StreamSize                     : 478556160

    Text #1
    ID                                       : 4
    Format                                   : PGS
    Muxing mode                              : zlib
    Codec ID                                 : S_HDMV/PGS
    Codec ID/Info                            : Picture based subtitle format used on BDs/HD-DVDs
    Title                                    : Forzados
    Language                                 : Spanish
    Default                                  : No
    Forced                                   : Yes
    Statistics Tags Issue                    : mkvmerge v15.0.0 ('Duel with the Devil') 64-bit 2018-02-07 18:38:38 / mkvmerge v15.0.0 ('Duel with the Devil') 64-bit 2018-02-07 18:38:38 / UTC 2018-02-07T15:21:59Z
    FromStats_BitRate                        : 539
    FromStats_Duration                       : 01:11:54.481000000
    FromStats_FrameCount                     : 20
    FromStats_StreamSize                     : 290897

    Text #2
    ID                                       : 5
    Format                                   : PGS
    Muxing mode                              : zlib
    Codec ID                                 : S_HDMV/PGS
    Codec ID/Info                            : Picture based subtitle format used on BDs/HD-DVDs
    Language                                 : Spanish
    Default                                  : No
    Forced                                   : No
    Statistics Tags Issue                    : mkvmerge v15.0.0 ('Duel with the Devil') 64-bit 2018-02-07 18:38:38 / mkvmerge v15.0.0 ('Duel with the Devil') 64-bit 2018-02-07 18:38:38 / UTC 2018-02-07T15:21:59Z
    FromStats_BitRate                        : 74662
    FromStats_Duration                       : 01:38:06.887000000
    FromStats_FrameCount                     : 3270
    FromStats_StreamSize                     : 54941264

    Text #3
    ID                                       : 6
    Format                                   : PGS
    Muxing mode                              : zlib
    Codec ID                                 : S_HDMV/PGS
    Codec ID/Info                            : Picture based subtitle format used on BDs/HD-DVDs
    Language                                 : English
    Default                                  : No
    Forced                                   : No
    Statistics Tags Issue                    : mkvmerge v15.0.0 ('Duel with the Devil') 64-bit 2018-02-07 18:38:38 / mkvmerge v15.0.0 ('Duel with the Devil') 64-bit 2018-02-07 18:38:38 / UTC 2018-02-07T15:21:59Z
    FromStats_BitRate                        : 90140
    FromStats_Duration                       : 00:00:04.212000000
    FromStats_FrameCount                     : 2
    FromStats_StreamSize                     : 47459

    Menu
    00:00:00.000                             : :Chapter 1
    00:08:08.530                             : :Chapter 2
    00:16:08.092                             : :Chapter 3
    00:21:44.053                             : :Chapter 4
    00:27:40.159                             : :Chapter 5
    00:32:47.424                             : :Chapter 6
    00:40:49.030                             : :Chapter 7
    00:47:57.166                             : :Chapter 8
    00:52:27.895                             : :Chapter 9
    01:00:08.730                             : :Chapter 10
    01:08:37.363                             : :Chapter 11
    01:15:23.102                             : :Chapter 12
    01:26:24.846                             : :Chapter 13
    01:33:35.026                             : :Chapter 14

  • Peso: 5.15 GiB

Sinopsis

Dusty (Mark Wahlberg) y Brad (Will Ferrell) se han unido para ofrecerle a sus hijos la Navidad perfecta. Este nuevo equipo se pone a prueba cuando el papá gruñón de Dusty (Mel Gibson) y el papá ultra cariñoso y tierno de Brad (John Lithgow) llegan para convertir a las vacaciones decembrinas en un completo caos. Secuela de “Padres por desigual”.

Ficha técnica

Video trailer de la película

Enlaces de descarga

Rip de Bluray

Descargar Guerra de papás 2 (2017) Full 1080p Latino




Aportes de DPeliculasHDmega la pass es:dpeliculashdmega.org Aportes de CinemaniaHD la pass es:cinemaniahdd.com

Películas relacionadas

  • The Punisher (2019) Temporada 2 NF 1080p Latino

    2017
    The Punisher (2019) Temporada 2 NF 1080p Latino

    5.0 0h 53m 2017

    Por ahora, Netflix no ha revelado el contenido de la temporada 2 de "The Punisher", ya que lo único...

    Director: Steve Lightfoot

    Género: Action & Adventure

    Actores: Josh Stewart

  • La buena esposa (2017) Web-DL 1080p Latino

    2018
    La buena esposa (2017) Web-DL 1080p Latino

    0.0 1h 40m 2018

    Descargar La buena esposa (2017) Web-DL 1080p Latino, Mega, Google Drive, Torrent. Joan Castleman (Glenn...

    Director: Björn Runge

    Género: Drama

    Actores: Twinnie Lee Moore

  • Peloton (1986) Full 1080p Latino

    1986
    Peloton (1986) Full 1080p Latino

    0.0 2h 0m 1986

    Descargar Peloton (1986) Full 1080p Latino, Mega, Google Drive, Torrent. Chris Taylor es un ingenuo joven...

    Director: Tim Minear

    Género: Acción

    Actores: Willem Dafoe

  • Escuadrón suicida (2016) Extended Full 1080p Latino

    2016
    Escuadrón suicida (2016) Extended Full 1080p Latino

    5.0 2 h 14 min 2016

    Descargar Escuadrón suicida (2016) Extended 1080p Latino, Mega, Google Drive, Torrent. Mientras el gobierno...

    Director: Shane B. Scott

    Género: Acción

    Actores: William Hainsworth

Comentarios 13
  • Brian - 11 febrero, 2018

    Hola , los subtitulos psg en español estan cortados, de a rato no salen

  • JOHNSON2018 - 09 febrero, 2018

    gracias por esl post pero le falto el ingles completo pero gracias solo metieron el forzado..de ahi todo bien gracias..

    se les comunico para que lo sepan..

  • Jonna - 08 febrero, 2018

    Muchas gracias, se podrá subir la primera para tengamos las 2/ Saludos

    • Dracarys - 09 febrero, 2018

      Hola si pronto

  • Gerrard - 08 febrero, 2018

    La subirán a mega??? 🙁

    • Dracarys - 14 febrero, 2018

      subido

  • Gerrard - 08 febrero, 2018

    Muchas gracias!!! Por esta calidad me espere todo el dia!! Son los mejores, saludos!!

  • vanessa - 08 febrero, 2018

    gracias por la pelicula .tambien subiras la primera pelicula version plateada

    • Dracarys - 09 febrero, 2018

      si en algunos dias

  • slash - 08 febrero, 2018

    Muchas gracias.

  • TorukMato - 08 febrero, 2018

    Thanks…Pal!!

  • Miguel Angel - 07 febrero, 2018

    Por favor habiliten Mega…

  • Logan - 07 febrero, 2018

    Ya no utilizan h265 ???
    Y gracias descargando