×

¿Problemas para descargar con Mozilla, EDGE? Deshabilita la opción "Abrir vinculos en una pestaña nueva" tal como lo muestra ésta imagen.

Guardianes de la Galaxia: Volumen 3 (2023) IMAX REMUX 1080p Latino

252 vistas

Información de Guardianes de la Galaxia: Volumen 3 (2023) IMAX REMUX 1080p Latino

Datos de la película

  • Calidad: Full 1080p
  • Audio: Se especifica abajo de la Sinopsis
  • Subtitulos: Español Latino PGS - Ingles PGS
  • Resolución: 1920x1080p
  • Formato: MKV
  • Codec: H.264
  • Encoder: Melkor
  • Mediainfo: Clic para Mostrar Datos Ver
  • Guardians of the Galaxy Vol 3 (2023) IMAX REMUX 1080p Latino.mkv
    Format                      : Matroska
    Format version              : Version 4
    File size                   : 35.5 GiB
    Duration                    : 2 h 30 min
    Overall bit rate mode       : Variable
    Overall bit rate            : 33.9 Mb/s
    Movie name                  : Guardians of the Galaxy Vol 3 (2023) CinemaniaHDD.Net
    Encoded date                : UTC 2023-07-26 12:54:33
    Writing application         : mkvmerge v56.1.0 ('My Friend') 64-bit
    Writing library             : libebml v1.4.2 + libmatroska v1.6.4
    Cover                       : Yes
    Attachments                 : cover.jpg / CINEMANIAHD.png
    Site                        : CinemaniaHDD.Net
    Uploader                    : Melkor

    Video
    ID                          : 1
    ID in the original source m : 4113 (0x1011)
    Format                      : AVC
    Format/Info                 : Advanced Video Codec
    Format profile              : High@L4.1
    Format settings             : CABAC / 4 Ref Frames
    Format settings, CABAC      : Yes
    Format settings, Reference  : 4 frames
    Format settings, GOP        : M=3, N=12
    Codec ID                    : V_MPEG4/ISO/AVC
    Duration                    : 2 h 30 min
    Bit rate mode               : Variable
    Bit rate                    : 27.9 Mb/s
    Maximum bit rate            : 35.4 Mb/s
    Width                       : 1 920 pixels
    Height                      : 1 080 pixels
    Display aspect ratio        : 16:9
    Frame rate mode             : Constant
    Frame rate                  : 23.976 (24000/1001) FPS
    Color space                 : YUV
    Chroma subsampling          : 4:2:0
    Bit depth                   : 8 bits
    Scan type                   : Progressive
    Bits/(Pixel*Frame)          : 0.561
    Stream size                 : 29.2 GiB (82%)
    Title                       : REMUX HD1080p [CinemaniaHDD]
    Default                     : Yes
    Forced                      : Yes
    Original source medium      : Blu-ray

    Audio #1
    ID                          : 2
    ID in the original source m : 4355 (0x1103)
    Format                      : AC-3
    Format/Info                 : Audio Coding 3
    Commercial name             : Dolby Digital
    Codec ID                    : A_AC3
    Duration                    : 2 h 30 min
    Bit rate mode               : Constant
    Bit rate                    : 640 kb/s
    Channel(s)                  : 6 channels
    Channel layout              : L R C LFE Ls Rs
    Sampling rate               : 48.0 kHz
    Frame rate                  : 31.250 FPS (1536 SPF)
    Compression mode            : Lossy
    Stream size                 : 687 MiB (2%)
    Title                       : Español Latino AC3 [CinemaniaHDD]
    Language                    : Spanish
    Service kind                : Complete Main
    Default                     : Yes
    Forced                      : Yes
    Original source medium      : Blu-ray

    Audio #2
    ID                          : 3
    Format                      : E-AC-3
    Format/Info                 : Enhanced AC-3
    Commercial name             : Dolby Digital Plus
    Format settings             : Dolby Surround EX
    Codec ID                    : A_EAC3
    Duration                    : 2 h 30 min
    Bit rate mode               : Constant
    Bit rate                    : 640 kb/s
    Channel(s)                  : 8 channels
    Channel layout              : L R C LFE Ls Rs Lb Rb
    Sampling rate               : 48.0 kHz
    Frame rate                  : 31.250 FPS (1536 SPF)
    Compression mode            : Lossy
    Stream size                 : 687 MiB (2%)
    Title                       : Español Latino EAC3 [CinemaniaHDD]
    Language                    : Spanish
    Service kind                : Complete Main
    Default                     : No
    Forced                      : No

    Audio #3
    ID                          : 4
    ID in the original source m : 4352 (0x1100)
    Format                      : DTS XLL
    Format/Info                 : Digital Theater Systems
    Commercial name             : DTS-HD Master Audio
    Codec ID                    : A_DTS
    Duration                    : 2 h 30 min
    Bit rate mode               : Variable
    Bit rate                    : 4 686 kb/s
    Channel(s)                  : 8 channels
    Channel layout              : C L R LFE Lb Rb Lss Rss
    Sampling rate               : 48.0 kHz
    Frame rate                  : 93.750 FPS (512 SPF)
    Bit depth                   : 24 bits
    Compression mode            : Lossless
    Stream size                 : 4.91 GiB (14%)
    Title                       : Ingles [CinemaniaHDD]
    Language                    : English
    Default                     : No
    Forced                      : No
    Original source medium      : Blu-ray

    Text #1
    ID                          : 5
    ID in the original source m : 4615 (0x1207)
    Format                      : PGS
    Muxing mode                 : zlib
    Codec ID                    : S_HDMV/PGS
    Codec ID/Info               : Picture based subtitle format used on BDs/HD-DVDs
    Duration                    : 2 h 25 min
    Bit rate                    : 265 b/s
    Count of elements           : 20
    Stream size                 : 282 KiB (0%)
    Title                       : Forzados-PGS [CinemaniaHDD]
    Language                    : Spanish
    Default                     : No
    Forced                      : No
    Original source medium      : Blu-ray

    Text #2
    ID                          : 6
    ID in the original source m : 4610 (0x1202)
    Format                      : PGS
    Muxing mode                 : zlib
    Codec ID                    : S_HDMV/PGS
    Codec ID/Info               : Picture based subtitle format used on BDs/HD-DVDs
    Duration                    : 2 h 27 min
    Bit rate                    : 27.3 kb/s
    Count of elements           : 3252
    Stream size                 : 28.9 MiB (0%)
    Title                       : Español-PGS [CinemaniaHDD]
    Language                    : Spanish
    Default                     : No
    Forced                      : No
    Original source medium      : Blu-ray

    Text #3
    ID                          : 7
    ID in the original source m : 4608 (0x1200)
    Format                      : PGS
    Muxing mode                 : zlib
    Codec ID                    : S_HDMV/PGS
    Codec ID/Info               : Picture based subtitle format used on BDs/HD-DVDs
    Duration                    : 2 h 29 min
    Bit rate                    : 50.2 kb/s
    Count of elements           : 5576
    Stream size                 : 53.8 MiB (0%)
    Title                       : Ingles-PGS [CinemaniaHDD]
    Language                    : English
    Default                     : No
    Forced                      : No
    Original source medium      : Blu-ray

    Text #4
    ID                          : 8
    Format                      : UTF-8
    Codec ID                    : S_TEXT/UTF8
    Codec ID/Info               : UTF-8 Plain Text
    Duration                    : 2 h 25 min
    Bit rate                    : 0 b/s
    Count of elements           : 10
    Stream size                 : 331 Bytes (0%)
    Title                       : Forzados-SRT [CinemaniaHDD]
    Language                    : Spanish
    Default                     : Yes
    Forced                      : Yes

    Text #5
    ID                          : 9
    Format                      : UTF-8
    Codec ID                    : S_TEXT/UTF8
    Codec ID/Info               : UTF-8 Plain Text
    Duration                    : 2 h 27 min
    Bit rate                    : 39 b/s
    Count of elements           : 1626
    Stream size                 : 42.6 KiB (0%)
    Title                       : Español-SRT [CinemaniaHDD]
    Language                    : Spanish
    Default                     : No
    Forced                      : No

    Menu
    00:00:00.000                : Chapter 01
    00:08:00.646                : Chapter 02
    00:13:36.732                : Chapter 03
    00:16:08.676                : Chapter 04
    00:18:44.998                : Chapter 05
    00:20:37.778                : Chapter 06
    00:23:58.770                : Chapter 07
    00:26:44.978                : Chapter 08
    00:30:44.592                : Chapter 09
    00:34:45.625                : Chapter 10
    00:40:35.683                : Chapter 11
    00:49:51.989                : Chapter 12
    00:52:15.674                : Chapter 13
    00:57:18.143                : Chapter 14
    00:59:43.538                : Chapter 15
    01:02:58.483                : Chapter 16
    01:05:37.892                : Chapter 17
    01:09:12.314                : Chapter 18
    01:13:55.722                : Chapter 19
    01:19:53.955                : Chapter 20
    01:26:47.035                : Chapter 21
    01:31:00.121                : Chapter 22
    01:39:22.957                : Chapter 23
    01:44:25.926                : Chapter 24
    01:51:45.198                : Chapter 25
    01:55:09.277                : Chapter 26
    01:59:15.940                : Chapter 27
    02:03:21.394                : Chapter 28
    02:07:49.453                : Chapter 29
    02:11:48.901                : Chapter 30
    02:20:14.656                : Chapter 31
    02:21:22.056                : Chapter 32
    02:22:58.736                : Chapter 33
    02:29:14.070                : Chapter 34

  • Peso: 35.5 GiB

Sinopsis

Descargar Guardianes de la Galaxia: Volumen 3 (2023) IMAX REMUX 1080p Latino. La querida banda de los Guardianes se instala en Knowhere. Pero sus vidas no tardan en verse alteradas por los ecos del turbulento pasado de Rocket. Peter Quill, aún conmocionado por la pérdida de Gamora, debe reunir a su equipo en una peligrosa misión para salvar la vida de Rocket, una misión que, si no se completa con éxito, podría muy posiblemente conducir al final de los Guardianes tal y como los conocemos.

Español Latino AC3 5.1 BD & EAC3 7.1 Web – Ingles DTS-HD 7.1 BD

Ficha técnica

Video trailer de la película

Enlaces de descarga

Rip de Bluray

Descargar Guardianes de la Galaxia: Volumen 3 (2023) IMAX REMUX 1080p Latino




Aportes de DPeliculasHDmega la pass es:dpeliculashdmega.org Aportes de CinemaniaHD la pass es:cinemaniahdd.com Aportes recientes:cinemaniahdd.net
Guardado en : Acción , Aventura , Ciencia ficción , Remux

Películas relacionadas

  • Dune: Parte dos (2024) WEB-DL 4K UHD HDR Latino

    Dune: Parte dos (2024) WEB-DL 4K UHD HDR Latino

    2024
    Dune: Parte dos (2024) WEB-DL 4K UHD HDR Latino

    2h 47m 2024

    Descargar Dune: Parte dos (2024) WEB-DL 4K UHD HDR Latino. Sigue el viaje mítico de Paul Atreides mientras...

    Director: Vera Janisch

    Género: 4K HDR

    Actores: Zouhair Elakkari

  • Dune: Parte dos (2024) AMZN WEB-DL 1080p Latino

    Dune: Parte dos (2024) AMZN WEB-DL 1080p Latino

    2024
    Dune: Parte dos (2024) AMZN WEB-DL 1080p Latino

    2h 47m 2024

    Descargar Dune: Parte dos (2024) AMZN WEB-DL 1080p Latino. Sigue el viaje mítico de Paul Atreides mientras...

    Director: Vera Janisch

    Género: Aventura

    Actores: Zouhair Elakkari

  • La Duquesa (2008) REMUX 1080p Latino-CMHDD

    La Duquesa (2008) REMUX 1080p Latino-CMHDD

    2008
    La Duquesa (2008) REMUX 1080p Latino-CMHDD

    1h 51m 2008

    Descargar La Duquesa (2008) REMUX 1080p Latino-CMHDD. Hermosa, glamurosa y adorada por el pueblo, Georgiana...

    Director: Saul Dibb

    Género: Drama

    Actores: Thomas Arnold

descargar Guardianes de la Galaxia: Volumen 3 (2023) IMAX REMUX 1080p Latino Full 1080p 1080p gratis, Guardianes de la Galaxia: Volumen 3 (2023) IMAX REMUX 1080p Latino Full 1080p mega 1 link, Guardianes de la Galaxia: Volumen 3 (2023) IMAX REMUX 1080p Latino Full 1080p pelicula completa, descargar Guardianes de la Galaxia: Volumen 3 (2023) IMAX REMUX 1080p Latino Full 1080p gratis en mega.

Guardianes de la Galaxia: Volumen 3 (2023) IMAX REMUX 1080p Latino pelicula full hd, Guardianes de la Galaxia: Volumen 3 (2023) IMAX REMUX 1080p Latino mega latino, Guardianes de la Galaxia: Volumen 3 (2023) IMAX REMUX 1080p Latino 4k latino, Guardianes de la Galaxia: Volumen 3 (2023) IMAX REMUX 1080p Latino pelicula completa, Guardianes de la Galaxia: Volumen 3 (2023) IMAX REMUX 1080p Latino descargar gratis, descargar Guardianes de la Galaxia: Volumen 3 (2023) IMAX REMUX 1080p Latino pelicula latino, Guardianes de la Galaxia: Volumen 3 (2023) IMAX REMUX 1080p Latino 1 link mega, Guardianes de la Galaxia: Volumen 3 (2023) IMAX REMUX 1080p Latino 1 link google drive, Guardianes de la Galaxia: Volumen 3 (2023) IMAX REMUX 1080p Latino hd 1080p latino.
Comentarios 0