×

¿Problemas para descargar con Mozilla, EDGE? Deshabilita la opción "Abrir vinculos en una pestaña nueva" tal como lo muestra ésta imagen.

Guardianes de la Galaxia: Volumen 3 (2023) IMAX WEB-DL 4K UHD HDR/DV Latino

344 vistas

Información de Guardianes de la Galaxia: Volumen 3 (2023) IMAX WEB-DL 4K UHD HDR/DV Latino

Datos de la película

  • Calidad: WEBDL
  • Audio: Se especifica abajo de la Sinopsis
  • Subtitulos: Español Latino SRT- FORZADOS SRT
  • Resolución: 3840x2160p
  • Formato: MKV
  • Codec: HEVC
  • Encoder: Melkor
  • Mediainfo: Clic para Mostrar Datos Ver
  • Guardians of the Galaxy Vol 3 (2023) IMAX WEB UHD HDR-DV Latino.mkv
    Format                      : Matroska
    Format version              : Version 4
    File size                   : 27.9 GiB
    Duration                    : 2 h 30 min
    Overall bit rate            : 26.6 Mb/s
    Movie name                  : Guardians of the Galaxy Vol 3 (2023) CinemaniaHDD.Net
    Encoded date                : UTC 2023-07-06 17:10:10
    Writing application         : mkvmerge v56.1.0 ('My Friend') 64-bit
    Writing library             : libebml v1.4.2 + libmatroska v1.6.4
    Attachments                 : CINEMANIAHD.png
    Site                        : CinemaniaHDD.Net
    Uploader                    : Melkor

    Video
    ID                          : 1
    Format                      : HEVC
    Format/Info                 : High Efficiency Video Coding
    Format profile              : Main 10@L5@High
    HDR format                  : Dolby Vision, Version 1.0, dvhe.08.06, BL+RPU, HDR10 compatible / SMPTE ST 2094 App 4, Version 1, HDR10+ Profile A compatible
    Codec ID                    : V_MPEGH/ISO/HEVC
    Duration                    : 2 h 30 min
    Bit rate                    : 24.6 Mb/s
    Width                       : 3 840 pixels
    Height                      : 2 024 pixels
    Display aspect ratio        : 1.897
    Frame rate mode             : Constant
    Frame rate                  : 23.976 (24000/1001) FPS
    Color space                 : YUV
    Chroma subsampling          : 4:2:0 (Type 2)
    Bit depth                   : 10 bits
    Bits/(Pixel*Frame)          : 0.132
    Stream size                 : 25.8 GiB (92%)
    Title                       : Web 2160p HDR [CinemaniaHDD]
    Language                    : English
    Default                     : Yes
    Forced                      : No
    Color range                 : Limited
    Color primaries             : BT.2020
    Transfer characteristics    : PQ
    Matrix coefficients         : BT.2020 non-constant
    Mastering display color pri : BT.2020
    Mastering display luminance : min: 0.0050 cd/m2, max: 1000 cd/m2
    Maximum Content Light Level : 606 cd/m2
    Maximum Frame-Average Light : 282 cd/m2

    Audio #1
    ID                          : 2
    Format                      : AC-3
    Format/Info                 : Audio Coding 3
    Commercial name             : Dolby Digital
    Codec ID                    : A_AC3
    Duration                    : 2 h 30 min
    Bit rate mode               : Constant
    Bit rate                    : 640 kb/s
    Channel(s)                  : 6 channels
    Channel layout              : L R C LFE Ls Rs
    Sampling rate               : 48.0 kHz
    Frame rate                  : 31.250 FPS (1536 SPF)
    Compression mode            : Lossy
    Stream size                 : 687 MiB (2%)
    Title                       : Español Latino AC3 [CinemaniaHDD]
    Language                    : Spanish
    Service kind                : Complete Main
    Default                     : Yes
    Forced                      : Yes

    Audio #2
    ID                          : 3
    Format                      : E-AC-3
    Format/Info                 : Enhanced AC-3
    Commercial name             : Dolby Digital Plus
    Format settings             : Dolby Surround EX
    Codec ID                    : A_EAC3
    Duration                    : 2 h 30 min
    Bit rate mode               : Constant
    Bit rate                    : 640 kb/s
    Channel(s)                  : 8 channels
    Channel layout              : L R C LFE Ls Rs Lb Rb
    Sampling rate               : 48.0 kHz
    Frame rate                  : 31.250 FPS (1536 SPF)
    Compression mode            : Lossy
    Stream size                 : 687 MiB (2%)
    Title                       : Español Latino EAC3 [CinemaniaHDD]
    Language                    : Spanish
    Service kind                : Complete Main
    Default                     : No
    Forced                      : No

    Audio #3
    ID                          : 4
    Format                      : E-AC-3 JOC
    Format/Info                 : Enhanced AC-3 with Joint Object Coding
    Commercial name             : Dolby Digital Plus with Dolby Atmos
    Codec ID                    : A_EAC3
    Duration                    : 2 h 30 min
    Bit rate mode               : Constant
    Bit rate                    : 768 kb/s
    Channel(s)                  : 6 channels
    Channel layout              : L R C LFE Ls Rs
    Sampling rate               : 48.0 kHz
    Frame rate                  : 31.250 FPS (1536 SPF)
    Compression mode            : Lossy
    Stream size                 : 824 MiB (3%)
    Title                       : Ingles [CinemaniaHDD]
    Language                    : English
    Service kind                : Complete Main
    Default                     : No
    Forced                      : No
    Complexity index            : 16
    Number of dynamic objects   : 15
    Bed channel count           : 1 channel
    Bed channel configuration   : LFE

    Text #1
    ID                          : 5
    Format                      : UTF-8
    Codec ID                    : S_TEXT/UTF8
    Codec ID/Info               : UTF-8 Plain Text
    Duration                    : 2 h 25 min
    Bit rate                    : 0 b/s
    Count of elements           : 10
    Stream size                 : 331 Bytes (0%)
    Title                       : Forzados-SRT [CinemaniaHDD]
    Language                    : Spanish
    Default                     : Yes
    Forced                      : Yes

    Text #2
    ID                          : 6
    Format                      : UTF-8
    Codec ID                    : S_TEXT/UTF8
    Codec ID/Info               : UTF-8 Plain Text
    Duration                    : 2 h 27 min
    Bit rate                    : 39 b/s
    Count of elements           : 1626
    Stream size                 : 42.6 KiB (0%)
    Title                       : Español-SRT [CinemaniaHDD]
    Language                    : Spanish
    Default                     : No
    Forced                      : No

    Text #3
    ID                          : 7
    Format                      : UTF-8
    Codec ID                    : S_TEXT/UTF8
    Codec ID/Info               : UTF-8 Plain Text
    Duration                    : 2 h 27 min
    Bit rate                    : 41 b/s
    Count of elements           : 1617
    Stream size                 : 44.5 KiB (0%)
    Title                       : Ingles-SRT [CinemaniaHDD]
    Language                    : English
    Default                     : No
    Forced                      : No

    Menu
    00:00:00.000                : Chapter 01
    00:08:00.647                : Chapter 02
    00:13:36.733                : Chapter 03
    00:16:08.677                : Chapter 04
    00:18:44.374                : Chapter 05
    00:20:37.153                : Chapter 06
    00:23:58.772                : Chapter 07
    00:26:44.979                : Chapter 08
    00:30:44.594                : Chapter 09
    00:34:45.627                : Chapter 10
    00:40:35.685                : Chapter 11
    00:49:50.657                : Chapter 12
    00:52:15.218                : Chapter 13
    00:57:18.146                : Chapter 14
    00:59:43.458                : Chapter 15
    01:02:58.486                : Chapter 16
    01:05:37.896                : Chapter 17
    01:09:12.318                : Chapter 18
    01:13:55.727                : Chapter 19
    01:19:53.960                : Chapter 20
    01:26:46.790                : Chapter 21
    01:31:00.043                : Chapter 22
    01:39:22.962                : Chapter 23
    01:44:25.932                : Chapter 24
    01:51:44.829                : Chapter 25
    01:55:09.284                : Chapter 26
    01:59:15.947                : Chapter 27
    02:03:21.401                : Chapter 28
    02:07:49.461                : Chapter 29
    02:11:46.072                : Chapter 30
    02:20:14.664                : Chapter 31
    02:21:22.065                : Chapter 32
    02:22:56.659                : Chapter 33
    02:29:14.079                : Chapter 34

  • Peso: 27.9 GiB

Sinopsis

Descargar Guardianes de la Galaxia: Volumen 3 (2023) IMAX WEB-DL 4K UHD HDR/DV Latino. Star-Lord, todavía recuperándose de la pérdida de Gamora, debe reunir a su equipo para defender el universo junto con la protección de uno de los suyos. Una misión que, si no se completa, podría llevar al final de los Guardianes tal como los conocemos.

Español Latino EAC3 7.1 & AC3 5.1 Web – Ingles EAC3 JOC 5.1 Web

Ficha técnica

Video trailer de la película

Enlaces de descarga

Rip de Bluray

Descargar Guardianes de la Galaxia: Volumen 3 (2023) IMAX WEB-DL 4K UHD HDR/DV Latino




Aportes de DPeliculasHDmega la pass es:dpeliculashdmega.org Aportes de CinemaniaHD la pass es:cinemaniahdd.com Aportes recientes:cinemaniahdd.net

Películas relacionadas

descargar Guardianes de la Galaxia: Volumen 3 (2023) IMAX WEB-DL 4K UHD HDR/DV Latino WEBDL 1080p gratis, Guardianes de la Galaxia: Volumen 3 (2023) IMAX WEB-DL 4K UHD HDR/DV Latino WEBDL mega 1 link, Guardianes de la Galaxia: Volumen 3 (2023) IMAX WEB-DL 4K UHD HDR/DV Latino WEBDL pelicula completa, descargar Guardianes de la Galaxia: Volumen 3 (2023) IMAX WEB-DL 4K UHD HDR/DV Latino WEBDL gratis en mega.

Guardianes de la Galaxia: Volumen 3 (2023) IMAX WEB-DL 4K UHD HDR/DV Latino pelicula full hd, Guardianes de la Galaxia: Volumen 3 (2023) IMAX WEB-DL 4K UHD HDR/DV Latino mega latino, Guardianes de la Galaxia: Volumen 3 (2023) IMAX WEB-DL 4K UHD HDR/DV Latino 4k latino, Guardianes de la Galaxia: Volumen 3 (2023) IMAX WEB-DL 4K UHD HDR/DV Latino pelicula completa, Guardianes de la Galaxia: Volumen 3 (2023) IMAX WEB-DL 4K UHD HDR/DV Latino descargar gratis, descargar Guardianes de la Galaxia: Volumen 3 (2023) IMAX WEB-DL 4K UHD HDR/DV Latino pelicula latino, Guardianes de la Galaxia: Volumen 3 (2023) IMAX WEB-DL 4K UHD HDR/DV Latino 1 link mega, Guardianes de la Galaxia: Volumen 3 (2023) IMAX WEB-DL 4K UHD HDR/DV Latino 1 link google drive, Guardianes de la Galaxia: Volumen 3 (2023) IMAX WEB-DL 4K UHD HDR/DV Latino hd 1080p latino.
Comentarios 0