×

¿Problemas para descargar con Mozilla, EDGE? Deshabilita la opción "Abrir vinculos en una pestaña nueva" tal como lo muestra ésta imagen.

Guardianes de la Galaxia: Volumen 3 (2023) IMAX ENHANCED D+ WEB-DL 4K UHD HDR/DV Latino

294 vistas

Información de Guardianes de la Galaxia: Volumen 3 (2023) IMAX ENHANCED D+ WEB-DL 4K UHD HDR/DV Latino

Datos de la película

  • Calidad: WEBDL
  • Audio: Se especifica abajo de la Sinopsis
  • Subtitulos: Español Latino SRT- FORZADOS SRT
  • Resolución: 3840x2160p
  • Formato: MKV
  • Codec: HEVC
  • Encoder: Melkor
  • Mediainfo: Clic para Mostrar Datos Ver
  • Guardians of the Galaxy Vol 3 (2023) D+ IMAX Enhanced WEB UHD HDR-DV Latino.mkv
    Format                      : Matroska
    Format version              : Version 4
    File size                   : 17.1 GiB
    Duration                    : 2 h 30 min
    Overall bit rate            : 16.3 Mb/s
    Movie name                  : Guardians of the Galaxy Vol. 3 (2023) CinemaniaHDD.Net
    Encoded date                : UTC 2023-08-02 20:23:53
    Writing application         : mkvmerge v56.1.0 ('My Friend') 64-bit
    Writing library             : libebml v1.4.2 + libmatroska v1.6.4
    Attachments                 : CINEMANIAHD.png
    Site                        : CinemaniaHDD.Net
    Uploader                    : Melkor

    Video
    ID                          : 1
    Format                      : HEVC
    Format/Info                 : High Efficiency Video Coding
    Format profile              : Main 10@L5@High
    HDR format                  : Dolby Vision, Version 1.0, dvhe.08.06, BL+RPU, HDR10 compatible / SMPTE ST 2086, HDR10 compatible
    Codec ID                    : V_MPEGH/ISO/HEVC
    Duration                    : 2 h 30 min
    Bit rate                    : 14.3 Mb/s
    Width                       : 3 840 pixels
    Height                      : 2 160 pixels
    Display aspect ratio        : 16:9
    Frame rate mode             : Constant
    Frame rate                  : 23.976 (24000/1001) FPS
    Color space                 : YUV
    Chroma subsampling          : 4:2:0
    Bit depth                   : 10 bits
    Bits/(Pixel*Frame)          : 0.072
    Stream size                 : 14.9 GiB (87%)
    Title                       : Web 2160p HDR [CinemaniaHDD]
    Language                    : English
    Default                     : Yes
    Forced                      : No
    Color range                 : Limited
    Color primaries             : BT.2020
    Transfer characteristics    : PQ
    Matrix coefficients         : BT.2020 non-constant
    Mastering display color pri : BT.2020
    Mastering display luminance : min: 0.0001 cd/m2, max: 1000 cd/m2

    Audio #1
    ID                          : 2
    ID in the original source m : 4355 (0x1103)
    Format                      : AC-3
    Format/Info                 : Audio Coding 3
    Commercial name             : Dolby Digital
    Codec ID                    : A_AC3
    Duration                    : 2 h 30 min
    Bit rate mode               : Constant
    Bit rate                    : 640 kb/s
    Channel(s)                  : 6 channels
    Channel layout              : L R C LFE Ls Rs
    Sampling rate               : 48.0 kHz
    Frame rate                  : 31.250 FPS (1536 SPF)
    Compression mode            : Lossy
    Stream size                 : 687 MiB (4%)
    Title                       : Español Latino AC3 [CinemaniaHDD]
    Language                    : Spanish
    Service kind                : Complete Main
    Default                     : Yes
    Forced                      : Yes
    Original source medium      : Blu-ray

    Audio #2
    ID                          : 3
    Format                      : E-AC-3
    Format/Info                 : Enhanced AC-3
    Commercial name             : Dolby Digital Plus
    Format settings             : Dolby Surround EX
    Codec ID                    : A_EAC3
    Duration                    : 2 h 30 min
    Bit rate mode               : Constant
    Bit rate                    : 640 kb/s
    Channel(s)                  : 8 channels
    Channel layout              : L R C LFE Ls Rs Lb Rb
    Sampling rate               : 48.0 kHz
    Frame rate                  : 31.250 FPS (1536 SPF)
    Compression mode            : Lossy
    Stream size                 : 687 MiB (4%)
    Title                       : Español Latino EAC3 [CinemaniaHDD]
    Language                    : Spanish
    Service kind                : Complete Main
    Default                     : No
    Forced                      : No

    Audio #3
    ID                          : 4
    Format                      : E-AC-3 JOC
    Format/Info                 : Enhanced AC-3 with Joint Object Coding
    Commercial name             : Dolby Digital Plus with Dolby Atmos
    Codec ID                    : A_EAC3
    Duration                    : 2 h 30 min
    Bit rate mode               : Constant
    Bit rate                    : 768 kb/s
    Channel(s)                  : 6 channels
    Channel layout              : L R C LFE Ls Rs
    Sampling rate               : 48.0 kHz
    Frame rate                  : 31.250 FPS (1536 SPF)
    Compression mode            : Lossy
    Stream size                 : 824 MiB (5%)
    Title                       : Ingles [CinemaniaHDD]
    Language                    : English
    Service kind                : Complete Main
    Default                     : No
    Forced                      : No
    Complexity index            : 16
    Number of dynamic objects   : 15
    Bed channel count           : 1 channel
    Bed channel configuration   : LFE

    Text #1
    ID                          : 5
    Format                      : UTF-8
    Codec ID                    : S_TEXT/UTF8
    Codec ID/Info               : UTF-8 Plain Text
    Duration                    : 2 h 25 min
    Bit rate                    : 0 b/s
    Count of elements           : 10
    Stream size                 : 331 Bytes (0%)
    Title                       : Forzados-SRT [CinemaniaHDD]
    Language                    : Spanish
    Default                     : Yes
    Forced                      : Yes

    Text #2
    ID                          : 6
    Format                      : UTF-8
    Codec ID                    : S_TEXT/UTF8
    Codec ID/Info               : UTF-8 Plain Text
    Duration                    : 2 h 27 min
    Bit rate                    : 40 b/s
    Count of elements           : 1626
    Stream size                 : 43.6 KiB (0%)
    Title                       : Español-SRT [CinemaniaHDD]
    Language                    : Spanish
    Default                     : No
    Forced                      : No

    Text #3
    ID                          : 7
    Format                      : UTF-8
    Codec ID                    : S_TEXT/UTF8
    Codec ID/Info               : UTF-8 Plain Text
    Duration                    : 2 h 27 min
    Bit rate                    : 53 b/s
    Count of elements           : 2057
    Stream size                 : 57.7 KiB (0%)
    Title                       : Ingles-SRT [CinemaniaHDD]
    Language                    : English
    Default                     : No
    Forced                      : No

    Menu
    00:00:00.005                : Chapter 1
    00:08:00.652                : Chapter 2
    00:13:36.738                : Chapter 3
    00:16:08.681                : Chapter 4
    00:18:45.004                : Chapter 5
    00:20:37.783                : Chapter 6
    00:23:58.776                : Chapter 7
    00:26:44.983                : Chapter 8
    00:30:44.598                : Chapter 9
    00:34:45.630                : Chapter 10
    00:40:35.688                : Chapter 11
    00:49:51.994                : Chapter 12
    00:52:15.679                : Chapter 13
    00:57:18.148                : Chapter 14
    00:59:43.543                : Chapter 15
    01:02:58.488                : Chapter 16
    01:05:37.897                : Chapter 17
    01:09:12.320                : Chapter 18
    01:13:55.728                : Chapter 19
    01:19:53.961                : Chapter 20
    01:26:47.040                : Chapter 21
    01:31:00.126                : Chapter 22
    01:39:22.962                : Chapter 23
    01:44:25.931                : Chapter 24
    01:51:45.203                : Chapter 25
    01:55:09.282                : Chapter 26
    01:59:15.945                : Chapter 27
    02:03:21.399                : Chapter 28
    02:07:49.458                : Chapter 29
    02:11:48.906                : Chapter 30
    02:20:14.661                : Chapter 31
    02:21:22.062                : Chapter 32
    02:22:58.742                : Chapter 33
    02:29:14.075                : Chapter 34

  • Peso: 17.1 GiB

Sinopsis

Descargar Guardianes de la Galaxia: Volumen 3 (2023) IMAX ENHANCED D+ WEB-DL 4K UHD HDR/DV Latino. La querida banda de los Guardianes se instala en Knowhere. Pero sus vidas no tardan en verse alteradas por los ecos del turbulento pasado de Rocket. Peter Quill, aún conmocionado por la pérdida de Gamora, debe reunir a su equipo en una peligrosa misión para salvar la vida de Rocket, una misión que, si no se completa con éxito, podría muy posiblemente conducir al final de los Guardianes tal y como los conocemos.

Español Latino AC3 5.1 BD & EAC3 7.1 Web – Ingles EAC3 JOC 5.1 Web

Ficha técnica

Video trailer de la película

Enlaces de descarga

Rip de Bluray

Descargar Guardianes de la Galaxia: Volumen 3 (2023) IMAX ENHANCED D+ WEB-DL 4K UHD HDR/DV Latino




Aportes de DPeliculasHDmega la pass es:dpeliculashdmega.org Aportes de CinemaniaHD la pass es:cinemaniahdd.com Aportes recientes:cinemaniahdd.net

Películas relacionadas

descargar Guardianes de la Galaxia: Volumen 3 (2023) IMAX ENHANCED D+ WEB-DL 4K UHD HDR/DV Latino WEBDL 1080p gratis, Guardianes de la Galaxia: Volumen 3 (2023) IMAX ENHANCED D+ WEB-DL 4K UHD HDR/DV Latino WEBDL mega 1 link, Guardianes de la Galaxia: Volumen 3 (2023) IMAX ENHANCED D+ WEB-DL 4K UHD HDR/DV Latino WEBDL pelicula completa, descargar Guardianes de la Galaxia: Volumen 3 (2023) IMAX ENHANCED D+ WEB-DL 4K UHD HDR/DV Latino WEBDL gratis en mega.

Guardianes de la Galaxia: Volumen 3 (2023) IMAX ENHANCED D+ WEB-DL 4K UHD HDR/DV Latino pelicula full hd, Guardianes de la Galaxia: Volumen 3 (2023) IMAX ENHANCED D+ WEB-DL 4K UHD HDR/DV Latino mega latino, Guardianes de la Galaxia: Volumen 3 (2023) IMAX ENHANCED D+ WEB-DL 4K UHD HDR/DV Latino 4k latino, Guardianes de la Galaxia: Volumen 3 (2023) IMAX ENHANCED D+ WEB-DL 4K UHD HDR/DV Latino pelicula completa, Guardianes de la Galaxia: Volumen 3 (2023) IMAX ENHANCED D+ WEB-DL 4K UHD HDR/DV Latino descargar gratis, descargar Guardianes de la Galaxia: Volumen 3 (2023) IMAX ENHANCED D+ WEB-DL 4K UHD HDR/DV Latino pelicula latino, Guardianes de la Galaxia: Volumen 3 (2023) IMAX ENHANCED D+ WEB-DL 4K UHD HDR/DV Latino 1 link mega, Guardianes de la Galaxia: Volumen 3 (2023) IMAX ENHANCED D+ WEB-DL 4K UHD HDR/DV Latino 1 link google drive, Guardianes de la Galaxia: Volumen 3 (2023) IMAX ENHANCED D+ WEB-DL 4K UHD HDR/DV Latino hd 1080p latino.
Comentarios 0