Guardaespaldas (2018) Temporada 1 NF 1080p Español Latino

660 vistas
1 estrella2 estrellas3 estrellas4 estrellas5 estrellas (3 votos, promedio: 3,67 de 5)
Cargando…

Información de Guardaespaldas (2018) Temporada 1 NF 1080p Español Latino

Datos de la película

  • Calidad: WEBDL
  • Audio: Se especifica abajo de la Sinopsis
  • Subtitulos: Español Latino SRT
  • Resolución: 1920x1080
  • Formato: MKV
  • Codec: H.264
  • Encoder: cinemaniahd
  • Mediainfo: Clic para Mostrar Datos Ver
  • Guardaespaldas S01E01 NF 1080p Español Latino.mkv
    Format                      : Matroska
    Format version              : Version 4
    File size                   : 1.11 GiB
    Duration                    : 58 min 16 s
    Overall bit rate mode       : Variable
    Overall bit rate            : 2 718 kb/s
    Encoded date                : UTC 2019-01-06 22:35:38 / UTC 2018-10-08 14:24:34
    Writing application         : mkvmerge v29.0.0 ('Like It Or Not') 64-bit
    Writing library             : libebml v1.3.6 + libmatroska v1.4.9 / Lavf58.0.0

    Video
    ID                          : 1
    Format                      : AVC
    Format/Info                 : Advanced Video Codec
    Format profile              : [email protected]
    Format settings             : CABAC / 3 Ref Frames
    Format settings, CABAC      : Yes
    Format settings, ReFrames   : 3 frames
    Codec ID                    : V_MPEG4/ISO/AVC
    Duration                    : 58 min 16 s
    Bit rate mode               : Variable
    Bit rate                    : 2 370 kb/s
    Maximum bit rate            : 3 555 kb/s
    Width                       : 1 920 pixels
    Height                      : 1 080 pixels
    Display aspect ratio        : 16:9
    Frame rate mode             : Constant
    Frame rate                  : 25.000 FPS
    Color space                 : YUV
    Chroma subsampling          : 4:2:0
    Bit depth                   : 8 bits
    Scan type                   : Progressive
    Bits/(Pixel*Frame)          : 0.046
    Stream size                 : 950 MiB (84%)
    Writing library             : x264 core 148 r2715 7e75228
    Encoding settings           : cabac=1 / ref=3 / deblock=1:0:0 / analyse=0x1:0x111 / me=umh / subme=10 / psy=1 / psy_rd=1.00:0.00 / mixed_ref=1 / me_range=24 / chroma_me=1 / trellis=2 / 8x8dct=0 / cqm=0 / deadzone=21,11 / fast_pskip=1 / chroma_qp_offset=-2 / threads=8 / lookahead_threads=1 / sliced_threads=0 / nr=0 / decimate=1 / interlaced=0 / bluray_compat=0 / stitchable=1 / constrained_intra=0 / bframes=2 / b_pyramid=0 / b_adapt=2 / b_bias=0 / direct=3 / weightb=1 / open_gop=0 / weightp=2 / keyint=50 / keyint_min=26 / scenecut=0 / intra_refresh=0 / rc_lookahead=50 / rc=2pass / mbtree=1 / bitrate=2370 / ratetol=1.0 / qcomp=0.50 / qpmin=6 / qpmax=51 / qpstep=4 / cplxblur=20.0 / qblur=0.5 / vbv_maxrate=3555 / vbv_bufsize=4740 / nal_hrd=vbr / filler=0 / ip_ratio=1.40 / aq=1:1.00
    Default                     : Yes
    Forced                      : No
    Statistics Tags Issue       : mkvmerge v29.0.0 ('Like It Or Not') 64-bit 2019-01-06 22:35:38 / mkvmerge v29.0.0 ('Like It Or Not') 64-bit 2019-01-06 22:35:38 / UTC 2018-10-08 14:24:34
    FromStats_BitRate           : 2331420
    FromStats_Duration          : 00:58:16.360000000
    FromStats_FrameCount        : 87409
    FromStats_StreamSize        : 1018935748

    Audio #1
    ID                          : 2
    Format                      : E-AC-3
    Format/Info                 : Enhanced AC-3
    Commercial name             : Dolby Digital Plus
    Codec ID                    : A_EAC3
    Duration                    : 58 min 16 s
    Bit rate mode               : Constant
    Bit rate                    : 128 kb/s
    Channel(s)                  : 2 channels
    Channel layout              : L R
    Sampling rate               : 48.0 kHz
    Frame rate                  : 31.250 FPS (1536 SPF)
    Compression mode            : Lossy
    Stream size                 : 53.4 MiB (5%)
    Language                    : Spanish
    Service kind                : Complete Main
    Default                     : Yes
    Forced                      : No
    Encoded date                : UTC 2018-10-08 14:24:33
    Statistics Tags Issue       : mkvmerge v29.0.0 ('Like It Or Not') 64-bit 2019-01-06 22:35:38 / mkvmerge v29.0.0 ('Like It Or Not') 64-bit 2019-01-06 22:35:38 / UTC 2018-10-08 14:24:34
    FromStats_BitRate           : 128000
    FromStats_Duration          : 00:58:16.480000000
    FromStats_FrameCount        : 109265
    FromStats_StreamSize        : 55943680

    Audio #2
    ID                          : 3
    Format                      : E-AC-3
    Format/Info                 : Enhanced AC-3
    Commercial name             : Dolby Digital Plus
    Codec ID                    : A_EAC3
    Duration                    : 58 min 16 s
    Bit rate mode               : Constant
    Bit rate                    : 128 kb/s
    Channel(s)                  : 2 channels
    Channel layout              : L R
    Sampling rate               : 48.0 kHz
    Frame rate                  : 31.250 FPS (1536 SPF)
    Compression mode            : Lossy
    Stream size                 : 53.4 MiB (5%)
    Title                       : Ingles
    Service kind                : Complete Main
    Default                     : No
    Forced                      : No
    Encoded date                : UTC 2018-10-08 14:24:33
    Statistics Tags Issue       : mkvmerge v29.0.0 ('Like It Or Not') 64-bit 2019-01-06 22:35:38 / mkvmerge v29.0.0 ('Like It Or Not') 64-bit 2019-01-06 22:35:38 / UTC 2018-10-08 14:24:34
    FromStats_BitRate           : 128000
    FromStats_Duration          : 00:58:16.480000000
    FromStats_FrameCount        : 109265
    FromStats_StreamSize        : 55943680

    Audio #3
    ID                          : 4
    Format                      : E-AC-3
    Format/Info                 : Enhanced AC-3
    Commercial name             : Dolby Digital Plus
    Codec ID                    : A_EAC3
    Duration                    : 58 min 16 s
    Bit rate mode               : Constant
    Bit rate                    : 128 kb/s
    Channel(s)                  : 2 channels
    Channel layout              : L R
    Sampling rate               : 48.0 kHz
    Frame rate                  : 31.250 FPS (1536 SPF)
    Compression mode            : Lossy
    Stream size                 : 53.4 MiB (5%)
    Title                       : Español España
    Language                    : Spanish
    Service kind                : Complete Main
    Default                     : No
    Forced                      : No
    Encoded date                : UTC 2018-10-08 14:24:34
    Statistics Tags Issue       : mkvmerge v29.0.0 ('Like It Or Not') 64-bit 2019-01-06 22:35:38 / mkvmerge v29.0.0 ('Like It Or Not') 64-bit 2019-01-06 22:35:38 / UTC 2018-10-08 14:24:34
    FromStats_BitRate           : 128000
    FromStats_Duration          : 00:58:16.480000000
    FromStats_FrameCount        : 109265
    FromStats_StreamSize        : 55943680

    Text
    ID                          : 5
    Format                      : UTF-8
    Codec ID                    : S_TEXT/UTF8
    Codec ID/Info               : UTF-8 Plain Text
    Title                       : Spanish
    Language                    : Spanish
    Default                     : No
    Forced                      : No
    Statistics Tags Issue       : mkvmerge v29.0.0 ('Like It Or Not') 64-bit 2019-01-06 22:35:38 / mkvmerge v29.0.0 ('Like It Or Not') 64-bit 2019-01-06 22:35:38 / UTC 2018-10-08 14:24:34
    FromStats_BitRate           : 57
    FromStats_Duration          : 00:56:55.920000000
    FromStats_FrameCount        : 706
    FromStats_StreamSize        : 24365

  • Peso: 1.1 GB C/U

Sinopsis

Bodyguard gira en torno a David Budd, un hombre heroico y veterano de la guerra que ahora trabaja en temas de seguridad nacional, concretamente como agente especial de protección de la Realeza así como en un cuerpo especial de protección del Servicio de la Policía Metropolitana de Londres.

No obstante, su tarea y su moral se ven puestas en la balanza cuando se le asigna proteger a la ambiciosa Julia Montague, cuya política choca de manera dramática con los principios de Budd. De esta manera, se pone entredicho el deber de este hombre, quien podría bien protegerla o bien convertirse en su mayor amenaza.

Audios:

  • Español  Latino E-AC3 2.0 Netflix
  • Ingles E-AC3 2.0 Netflix
  • Español España, E-AC3 2.0 Netflix

Ficha técnica

Video trailer de la película

Enlaces de descarga

Rip de Bluray

Descargar Guardaespaldas (2018) Temporada 1 NF 1080p Español Latino




Aportes de DPeliculasHDmega la pass es:dpeliculashdmega.org Aportes de CinemaniaHD la pass es:cinemaniahdd.com
Guardado en : Crimen , Drama , Series , War & Politics

Películas relacionadas

  • The mule (2018) WEB-DL 1080p Latino

    2018
    The mule (2018) WEB-DL 1080p Latino

    0.0 1h 56m 2018

    A Earl Stone (Eastwood), un octogenario que está en quiebra, solo, y que se enfrenta a la ejecución...

    Director: Clint Eastwood

    Género: Crimen

    Actores: Victor Rasuk

  • Nace Una Estrella (2018) 4K UHD HDR Latino

    2018
    Nace Una Estrella (2018) 4K UHD HDR Latino

    0.0 2h 25m 2018

    Descargar Nace Una Estrella (2018) 4K UHD HDR Latino, Mega, Google Drive. Jackson Maine es una estrella...

    Director: Bradley Cooper

    Género: 4K HDR

    Actores: Willam Belli

  • FBI (2018) Temporada 1 1080p WEB-DL Latino

    2018
    FBI (2018) Temporada 1 1080p WEB-DL Latino

    0.0 0h 43m 2018

    Serie de TV (2018-). Drama vertiginoso sobre el funcionamiento interno de la oficina de Nueva York del...

    Director: Dick Wolf

    Género: Crimen

    Actores: Zeeko Zaki

Comentarios 0