×

¿Problemas para descargar con Mozilla, EDGE? Deshabilita la opción "Abrir vinculos en una pestaña nueva" tal como lo muestra ésta imagen.

Guard (2019) WEB-DL 1080p Latino – CMHDD

215 vistas

Información de Guard (2019) WEB-DL 1080p Latino – CMHDD

Datos de la película

  • Calidad: WEBDL
  • Audio: Español Latino AC3 2.0 WEB-DL - Ingles AC3 5.1 WEB-DL
  • Subtitulos: Español Latino SRT
  • Resolución: 1920x806p
  • Formato: MKV
  • Codec: H.264
  • Encoder: CinemaniaHDD
  • Mediainfo: Clic para Mostrar Datos Ver
  • Format                      : Matroska
    Format version              : Version 4
    File size                   : 3.69 GiB
    Duration                    : 1 h 43 min
    Overall bit rate            : 5 122 kb/s
    Movie name                  : Guard (2019) WEB-DL 1080p Latino - CMHDD
    Encoded date                : UTC 2021-05-13 01:15:59
    Writing application         : mkvmerge v56.1.0 ('My Friend') 64-bit
    Writing library             : libebml v1.4.2 + libmatroska v1.6.4

    Video
    ID                          : 1
    Format                      : AVC
    Format/Info                 : Advanced Video Codec
    Format profile              : High@L4
    Format settings             : CABAC / 5 Ref Frames
    Format settings, CABAC      : Yes
    Format settings, Reference  : 5 frames
    Codec ID                    : V_MPEG4/ISO/AVC
    Duration                    : 1 h 43 min
    Bit rate                    : 4 611 kb/s
    Width                       : 1 920 pixels
    Height                      : 806 pixels
    Display aspect ratio        : 2.40:1
    Frame rate mode             : Constant
    Frame rate                  : 24.000 FPS
    Color space                 : YUV
    Chroma subsampling          : 4:2:0
    Bit depth                   : 8 bits
    Scan type                   : Progressive
    Bits/(Pixel*Frame)          : 0.124
    Stream size                 : 3.32 GiB (90%)
    Language                    : English
    Default                     : Yes
    Forced                      : No
    Color range                 : Limited
    Color primaries             : BT.709
    Transfer characteristics    : BT.709
    Matrix coefficients         : BT.709

    Audio #1
    ID                          : 2
    Format                      : AAC LC
    Format/Info                 : Advanced Audio Codec Low Complexity
    Codec ID                    : A_AAC-2
    Duration                    : 1 h 43 min
    Bit rate                    : 125 kb/s
    Channel(s)                  : 2 channels
    Channel layout              : L R
    Sampling rate               : 48.0 kHz
    Frame rate                  : 46.875 FPS (1024 SPF)
    Compression mode            : Lossy
    Delay relative to video     : -42 ms
    Stream size                 : 92.3 MiB (2%)
    Language                    : Spanish
    Default                     : Yes
    Forced                      : No

    Audio #2
    ID                          : 3
    Format                      : AC-3
    Format/Info                 : Audio Coding 3
    Commercial name             : Dolby Digital
    Codec ID                    : A_AC3
    Duration                    : 1 h 43 min
    Bit rate mode               : Constant
    Bit rate                    : 384 kb/s
    Channel(s)                  : 6 channels
    Channel layout              : L R C LFE Ls Rs
    Sampling rate               : 48.0 kHz
    Frame rate                  : 31.250 FPS (1536 SPF)
    Compression mode            : Lossy
    Delay relative to video     : -42 ms
    Stream size                 : 284 MiB (7%)
    Language                    : Russian
    Service kind                : Complete Main
    Default                     : No
    Forced                      : No

    Text
    ID                          : 4
    Format                      : UTF-8
    Codec ID                    : S_TEXT/UTF8
    Codec ID/Info               : UTF-8 Plain Text
    Duration                    : 1 h 36 min
    Bit rate                    : 32 b/s
    Count of elements           : 707
    Stream size                 : 22.7 KiB (0%)
    Default                     : No
    Forced                      : No

    Menu
    00:00:00.000                : 1
    00:11:37.541                : 2
    00:22:26.999                : 3
    00:32:35.915                : 4
    00:45:10.373                : 5
    01:03:55.414                : 6
    01:18:19.539                : 7
    01:33:18.455                : 8
    01:39:12.996                : 9

  • Peso: 3.69 GiB

Sinopsis

La vida normal del conserje de un sanatorio abandonado se ve perturbada por la llegada de una extraña pareja que pide quedarse en una de las habitaciones. La pareja suele gritar y está claro que están ahí escondidos de alguien.

Una noche, tres hombres prendieron fuego a algo cerca del sanatorio y sacaron al vigilante. Cuando aparece, es atacado y amenazado. Algún tiempo después, en medio de una borrachera, la mujer dice que su único hijo de dos años había muerto recientemente y que su esposo está huyendo de sus ex compañeros en el crimen, a quienes les había robado una gran suma de dinero. Este es solo uno de los secretos que revelará el desierto helado.

Ficha técnica

  • Titulo original: Сторож
  • Fecha de lanzamiento: 24-10-2019 (Russia)
  • Director: Yury Bykov
  • Género: Drama, Suspenso

Video trailer de la película

Enlaces de descarga

Rip de Bluray

Descargar Guard (2019) WEB-DL 1080p Latino – CMHDD




Aportes de DPeliculasHDmega la pass es:dpeliculashdmega.org Aportes de CinemaniaHD la pass es:cinemaniahdd.com
Guardado en : Drama , Suspenso

Películas relacionadas

descargar Guard (2019) WEB-DL 1080p Latino – CMHDD WEBDL 1080p gratis, Guard (2019) WEB-DL 1080p Latino – CMHDD WEBDL mega 1 link, Guard (2019) WEB-DL 1080p Latino – CMHDD WEBDL pelicula completa, descargar Guard (2019) WEB-DL 1080p Latino – CMHDD WEBDL gratis en mega.

Guard (2019) WEB-DL 1080p Latino – CMHDD pelicula full hd, Guard (2019) WEB-DL 1080p Latino – CMHDD mega latino, Guard (2019) WEB-DL 1080p Latino – CMHDD 4k latino, Guard (2019) WEB-DL 1080p Latino – CMHDD pelicula completa, Guard (2019) WEB-DL 1080p Latino – CMHDD descargar gratis, descargar Guard (2019) WEB-DL 1080p Latino – CMHDD pelicula latino, Guard (2019) WEB-DL 1080p Latino – CMHDD 1 link mega, Guard (2019) WEB-DL 1080p Latino – CMHDD 1 link google drive, Guard (2019) WEB-DL 1080p Latino – CMHDD hd 1080p latino.