×

¿Problemas para descargar con Mozilla, EDGE? Deshabilita la opción "Abrir vinculos en una pestaña nueva" tal como lo muestra ésta imagen.

Guadalupe Reyes (2019) AMZN WEB-DL 1080p Latino

1.244 vistas

Información de Guadalupe Reyes (2019) AMZN WEB-DL 1080p Latino

Datos de la película

  • Calidad: WEBDL
  • Audio: Español Latino AC3 5.1
  • Subtitulos: Español Latino SRT
  • Resolución: 1920x800
  • Formato: MKV
  • Codec: H.264
  • Encoder: cinemaniahdd
  • Mediainfo: Clic para Mostrar Datos Ver
  • Guadalupe Reyes (2019) AMZN WEB-DL 1080p Latino.mkv
    Format                      : Matroska
    Format version              : Version 4
    File size                   : 5.58 GiB
    Duration                    : 1 h 31 min
    Overall bit rate            : 8 690 kb/s
    Movie name                  : Guadalupe Reyes (2019) AMZN - CinemaniaHDD.Net
    Encoded date                : UTC 2019-12-12 23:44:22
    Writing application         : mkvmerge v38.0.0 ('The Silent Type') 64-bit
    Writing library             : libebml v1.3.9 + libmatroska v1.5.2

    Video
    ID                          : 1
    Format                      : AVC
    Format/Info                 : Advanced Video Codec
    Format profile              : High@L4
    Format settings             : CABAC / 4 Ref Frames
    Format settings, CABAC      : Yes
    Format settings, ReFrames   : 4 frames
    Codec ID                    : V_MPEG4/ISO/AVC
    Duration                    : 1 h 31 min
    Bit rate mode               : Constant
    Bit rate                    : 7 408 kb/s
    Nominal bit rate            : 10 000 kb/s
    Width                       : 1 920 pixels
    Height                      : 800 pixels
    Display aspect ratio        : 2.40:1
    Frame rate mode             : Constant
    Frame rate                  : 23.976 (24000/1001) FPS
    Color space                 : YUV
    Chroma subsampling          : 4:2:0
    Bit depth                   : 8 bits
    Scan type                   : Progressive
    Bits/(Pixel*Frame)          : 0.201
    Stream size                 : 4.76 GiB (85%)
    Title                       : CinemaniaHDD
    Default                     : Yes
    Forced                      : No
    Color range                 : Limited
    Color primaries             : BT.709
    Transfer characteristics    : BT.709
    Matrix coefficients         : BT.709

    Audio #1
    ID                          : 2
    Format                      : E-AC-3
    Format/Info                 : Enhanced AC-3
    Commercial name             : Dolby Digital Plus
    Codec ID                    : A_EAC3
    Duration                    : 1 h 31 min
    Bit rate mode               : Constant
    Bit rate                    : 640 kb/s
    Channel(s)                  : 6 channels
    Channel layout              : L R C LFE Ls Rs
    Sampling rate               : 48.0 kHz
    Frame rate                  : 31.250 FPS (1536 SPF)
    Compression mode            : Lossy
    Stream size                 : 421 MiB (7%)
    Title                       : Español latino [CinemaniaHDD]
    Language                    : Spanish
    Service kind                : Complete Main
    Default                     : Yes
    Forced                      : No

    Audio #2
    ID                          : 3
    Format                      : AC-3
    Format/Info                 : Audio Coding 3
    Commercial name             : Dolby Digital
    Codec ID                    : A_AC3
    Duration                    : 1 h 31 min
    Bit rate mode               : Constant
    Bit rate                    : 640 kb/s
    Channel(s)                  : 6 channels
    Channel layout              : L R C LFE Ls Rs
    Sampling rate               : 48.0 kHz
    Frame rate                  : 31.250 FPS (1536 SPF)
    Bit depth                   : 16 bits
    Compression mode            : Lossy
    Stream size                 : 421 MiB (7%)
    Title                       : Español latino [CinemaniaHDD]
    Language                    : Spanish
    Service kind                : Complete Main
    Default                     : No
    Forced                      : No

    Text
    ID                          : 4
    Format                      : UTF-8
    Codec ID                    : S_TEXT/UTF8
    Codec ID/Info               : UTF-8 Plain Text
    Duration                    : 1 h 27 min
    Bit rate                    : 90 b/s
    Count of elements           : 1779
    Stream size                 : 58.2 KiB (0%)
    Title                       : Español latino [CinemaniaHDD]
    Language                    : Spanish
    Default                     : No
    Forced                      : No

     

  • Peso: 5.58 GiB

Sinopsis

Dos amigos de toda la vida deciden intentar el desafío Guadalupe Reyes, que consiste en beber todos los días desde el 12 de diciembre (Día de Nuestra Señora de Guadalupe) hasta el 6 de enero (Día de la Epifanía, la Fiesta de los Tres Reyes).

Ficha técnica

  • Titulo original: Guadalupe Reyes
  • Fecha de lanzamiento: 29-11-2019 (Mexico)
  • Director: Salvador Espinosa
  • Género: Comedia

Video trailer de la película

Enlaces de descarga

Rip de Bluray

Descargar Guadalupe Reyes (2019) AMZN WEB-DL 1080p Latino




Aportes de DPeliculasHDmega la pass es:dpeliculashdmega.org Aportes de CinemaniaHD la pass es:cinemaniahdd.com
Guardado en : Comedia

Películas relacionadas

  • DC Liga De Supermascotas (2022) HD 1080p Latino

    DC Liga De Supermascotas (2022) HD 1080p Latino

    2022
    DC Liga De Supermascotas (2022) HD 1080p Latino

    1h 45m 2022

    Descargar DC Liga De Supermascotas (2022) HD 1080p Latino. Krypto el Superperro y Superman son amigos...

    Director: Sam Levine

    Género: Acción

    Actores: Yvette Nicole Brown

  • Rick and Morty (2022) Temporada 6 WEB-DL 1080p Latino

    Rick and Morty (2022) Temporada 6 WEB-DL 1080p Latino

    2013
    Rick and Morty (2022) Temporada 6 WEB-DL 1080p Latino

    0h 22m 2013

    Comedia animada que narra las aventuras de un científico loco Rick Sánchez, que regresa después de...

    Director: Justin Roiland

    Género: Action & Adventure

    Actores: Spencer Grammer

  • Tremors (1990) REMUX 4K HDR Latino – CMHDD

    Tremors (1990) REMUX 4K HDR Latino – CMHDD

    1990
    Tremors (1990) REMUX 4K HDR Latino – CMHDD

    1h 35m 1990

    En Perfección, un pequeño pueblo al borde del desierto de Nevada, algo parece suceder debajo de la...

    Director: Susan Bierbaum

    Género: Acción

    Actores: Victor Wong

descargar Guadalupe Reyes (2019) AMZN WEB-DL 1080p Latino WEBDL 1080p gratis, Guadalupe Reyes (2019) AMZN WEB-DL 1080p Latino WEBDL mega 1 link, Guadalupe Reyes (2019) AMZN WEB-DL 1080p Latino WEBDL pelicula completa, descargar Guadalupe Reyes (2019) AMZN WEB-DL 1080p Latino WEBDL gratis en mega.

Guadalupe Reyes (2019) AMZN WEB-DL 1080p Latino pelicula full hd, Guadalupe Reyes (2019) AMZN WEB-DL 1080p Latino mega latino, Guadalupe Reyes (2019) AMZN WEB-DL 1080p Latino 4k latino, Guadalupe Reyes (2019) AMZN WEB-DL 1080p Latino pelicula completa, Guadalupe Reyes (2019) AMZN WEB-DL 1080p Latino descargar gratis, descargar Guadalupe Reyes (2019) AMZN WEB-DL 1080p Latino pelicula latino, Guadalupe Reyes (2019) AMZN WEB-DL 1080p Latino 1 link mega, Guadalupe Reyes (2019) AMZN WEB-DL 1080p Latino 1 link google drive, Guadalupe Reyes (2019) AMZN WEB-DL 1080p Latino hd 1080p latino.
Comentarios 0