×

¿Problemas para descargar con Mozilla, EDGE? Deshabilita la opción "Abrir vinculos en una pestaña nueva" tal como lo muestra ésta imagen.

Gretel y Hansel: Un siniestro cuento de hadas (2020) REMUX 1080p Latino

433 vistas

Información de Gretel y Hansel: Un siniestro cuento de hadas (2020) REMUX 1080p Latino

Datos de la película

  • Calidad: Full 1080p
  • Audio: Español Latino AC3 5.1 BLURAY - Ingles DTS 5.1 BLURAY
  • Subtitulos: Español Latino PGS - Ingles PGS
  • Resolución: 1920x1080p
  • Formato: MKV
  • Codec: H.264
  • Encoder: Melkor
  • Mediainfo: Clic para Mostrar Datos Ver
  • Gretel y Hansel (2020) REMUX 1080p Latino.mkv
    Format                      : Matroska
    Format version              : Version 4
    File size                   : 23.6 GiB
    Duration                    : 1 h 27 min
    Overall bit rate mode       : Variable
    Overall bit rate            : 38.7 Mb/s
    Movie name                  : Gretel & Hansel (2020) CinemaniaHDD.Net
    Encoded date                : UTC 2020-04-26 04:01:37
    Writing application         : mkvmerge v42.0.0 ('Overtime') 64-bit
    Writing library             : libebml v1.3.10 + libmatroska v1.5.2
    Attachments                 : CINEMANIAHD.png

    Video
    ID                          : 1
    Format                      : AVC
    Format/Info                 : Advanced Video Codec
    Format profile              : High@L4.1
    Format settings             : CABAC / 4 Ref Frames
    Format settings, CABAC      : Yes
    Format settings, ReFrames   : 4 frames
    Codec ID                    : V_MPEG4/ISO/AVC
    Duration                    : 1 h 27 min
    Bit rate mode               : Variable
    Bit rate                    : 35.0 Mb/s
    Maximum bit rate            : 38.0 Mb/s
    Width                       : 1 920 pixels
    Height                      : 1 080 pixels
    Display aspect ratio        : 16:9
    Frame rate mode             : Constant
    Frame rate                  : 23.976 (24000/1001) FPS
    Color space                 : YUV
    Chroma subsampling          : 4:2:0
    Bit depth                   : 8 bits
    Scan type                   : Progressive
    Bits/(Pixel*Frame)          : 0.704
    Stream size                 : 21.3 GiB (90%)
    Title                       : REMUX 1080p [CinemaniaHDD]
    Language                    : English
    Default                     : Yes
    Forced                      : No

    Audio #1
    ID                          : 2
    Format                      : AC-3
    Format/Info                 : Audio Coding 3
    Commercial name             : Dolby Digital
    Codec ID                    : A_AC3
    Duration                    : 1 h 27 min
    Bit rate mode               : Constant
    Bit rate                    : 640 kb/s
    Channel(s)                  : 6 channels
    Channel layout              : L R C LFE Ls Rs
    Sampling rate               : 48.0 kHz
    Frame rate                  : 31.250 FPS (1536 SPF)
    Bit depth                   : 16 bits
    Compression mode            : Lossy
    Stream size                 : 400 MiB (2%)
    Title                       : Español Latino [CinemaniaHDD]
    Language                    : Spanish
    Service kind                : Complete Main
    Default                     : Yes
    Forced                      : No

    Audio #2
    ID                          : 3
    Format                      : DTS XLL
    Format/Info                 : Digital Theater Systems
    Commercial name             : DTS-HD Master Audio
    Codec ID                    : A_DTS
    Duration                    : 1 h 27 min
    Bit rate mode               : Variable
    Bit rate                    : 3 100 kb/s
    Channel(s)                  : 6 channels
    Channel layout              : C L R Ls Rs LFE
    Sampling rate               : 48.0 kHz
    Frame rate                  : 93.750 FPS (512 SPF)
    Bit depth                   : 24 bits
    Compression mode            : Lossless
    Stream size                 : 1.89 GiB (8%)
    Title                       : Ingles [CinemaniaHDD]
    Language                    : English
    Default                     : No
    Forced                      : No

    Text #1
    ID                          : 4
    Format                      : PGS
    Muxing mode                 : zlib
    Codec ID                    : S_HDMV/PGS
    Codec ID/Info               : Picture based subtitle format used on BDs/HD-DVDs
    Duration                    : 1 h 26 min
    Bit rate                    : 22.0 kb/s
    Count of elements           : 1496
    Stream size                 : 13.6 MiB (0%)
    Title                       : Español-PGS [CinemaniaHDD]
    Language                    : Spanish
    Default                     : No
    Forced                      : No

    Text #2
    ID                          : 5
    Format                      : PGS
    Muxing mode                 : zlib
    Codec ID                    : S_HDMV/PGS
    Codec ID/Info               : Picture based subtitle format used on BDs/HD-DVDs
    Duration                    : 1 h 21 min
    Bit rate                    : 26.3 kb/s
    Count of elements           : 1464
    Stream size                 : 15.4 MiB (0%)
    Title                       : Ingles-PGS [CinemaniaHDD]
    Language                    : English
    Default                     : No
    Forced                      : No

    Text #3
    ID                          : 6
    Format                      : UTF-8
    Codec ID                    : S_TEXT/UTF8
    Codec ID/Info               : UTF-8 Plain Text
    Duration                    : 4 s 838 ms
    Bit rate                    : 74 b/s
    Count of elements           : 1
    Stream size                 : 45.0 Bytes (0%)
    Title                       : Forzados-SRT [CinemaniaHDD]
    Language                    : Spanish
    Default                     : Yes
    Forced                      : No

    Text #4
    ID                          : 7
    Format                      : UTF-8
    Codec ID                    : S_TEXT/UTF8
    Codec ID/Info               : UTF-8 Plain Text
    Duration                    : 1 h 21 min
    Bit rate                    : 39 b/s
    Count of elements           : 747
    Stream size                 : 23.3 KiB (0%)
    Title                       : Español-SRT [CinemaniaHDD]
    Language                    : Spanish
    Default                     : No
    Forced                      : No

    Menu
    00:00:00.000                : en:Chapter 1
    00:09:17.139                : en:Chapter 2
    00:18:36.198                : en:Chapter 3
    00:28:10.063                : en:Chapter 4
    00:36:36.068                : en:Chapter 5
    00:44:25.454                : en:Chapter 6
    00:54:17.837                : en:Chapter 7
    01:04:07.468                : en:Chapter 8
    01:12:41.982                : en:Chapter 9
    01:22:15.013                : en:Chapter 10

  • Peso: 23.6 GiB

Sinopsis

Descargar Gretel y Hansel: Un siniestro cuento de hadas (2020) REMUX 1080p Latino. A principios del siglo XIV en Baviera, Gretel y Hansel viven en la miseria desde que su padre falleció. Por la falta de recursos su padrastro se embarca con ellos en una huida por el bosque donde un cazador les indica el camino seguro. Así, los hermanos encontrarán la cabaña de Holda, una simpática mujer. Todo va bien y la comida abunda, pero algo les huele mal. Gretel y Hansel se van a enfrentar a sus peores miedos.

Ficha técnica

  • Titulo original: Gretel & Hansel
  • Fecha de lanzamiento: 30-01-2020 (Canada, Ireland, South Africa, United States of America)
  • Director: Oz Perkins
  • Género: Fantasía, Remux, Suspenso, Terror

Video trailer de la película

Enlaces de descarga

Rip de Bluray

Descargar Gretel y Hansel: Un siniestro cuento de hadas (2020) REMUX 1080p Latino




Aportes de DPeliculasHDmega la pass es:dpeliculashdmega.org Aportes de CinemaniaHD la pass es:cinemaniahdd.com
Guardado en : Fantasía , Remux , Suspenso , Terror

Películas relacionadas

descargar Gretel y Hansel: Un siniestro cuento de hadas (2020) REMUX 1080p Latino Full 1080p 1080p gratis, Gretel y Hansel: Un siniestro cuento de hadas (2020) REMUX 1080p Latino Full 1080p mega 1 link, Gretel y Hansel: Un siniestro cuento de hadas (2020) REMUX 1080p Latino Full 1080p pelicula completa, descargar Gretel y Hansel: Un siniestro cuento de hadas (2020) REMUX 1080p Latino Full 1080p gratis en mega.

Gretel y Hansel: Un siniestro cuento de hadas (2020) REMUX 1080p Latino pelicula full hd, Gretel y Hansel: Un siniestro cuento de hadas (2020) REMUX 1080p Latino mega latino, Gretel y Hansel: Un siniestro cuento de hadas (2020) REMUX 1080p Latino 4k latino, Gretel y Hansel: Un siniestro cuento de hadas (2020) REMUX 1080p Latino pelicula completa, Gretel y Hansel: Un siniestro cuento de hadas (2020) REMUX 1080p Latino descargar gratis, descargar Gretel y Hansel: Un siniestro cuento de hadas (2020) REMUX 1080p Latino pelicula latino, Gretel y Hansel: Un siniestro cuento de hadas (2020) REMUX 1080p Latino 1 link mega, Gretel y Hansel: Un siniestro cuento de hadas (2020) REMUX 1080p Latino 1 link google drive, Gretel y Hansel: Un siniestro cuento de hadas (2020) REMUX 1080p Latino hd 1080p latino.
Comentarios 0