×

¿Problemas para descargar con Mozilla, EDGE? Deshabilita la opción "Abrir vinculos en una pestaña nueva" tal como lo muestra ésta imagen.

Gretel y Hansel: Un siniestro cuento de hadas (2020) PLACEBO Full HD 1080p Latino

450 vistas

Información de Gretel y Hansel: Un siniestro cuento de hadas (2020) PLACEBO Full HD 1080p Latino

Datos de la película

  • Calidad: Full 1080p
  • Audio: Español Latino AC3 5.1 BLURAY - Ingles DTS 5.1 BLURAY
  • Subtitulos: Español Latino PGS - Ingles PGS
  • Resolución: 1920X1080p
  • Formato: MKV
  • Codec: H.264
  • Encoder: Melkor
  • Mediainfo: Clic para Mostrar Datos Ver
  • Gretel y Hansel (2020) PLACEBO Full HD 1080p Latino.mkv
    Format                      : Matroska
    Format version              : Version 4
    File size                   : 4.28 GiB
    Duration                    : 1 h 27 min
    Overall bit rate mode       : Variable
    Overall bit rate            : 7 020 kb/s
    Movie name                  : Gretel & Hansel (2020) CinemaniaHDD.Net
    Encoded date                : UTC 2020-04-26 06:50:43
    Writing application         : mkvmerge v42.0.0 ('Overtime') 64-bit
    Writing library             : libebml v1.3.10 + libmatroska v1.5.2
    Attachments                 : CINEMANIAHD.png

    Video
    ID                          : 1
    Format                      : AVC
    Format/Info                 : Advanced Video Codec
    Format profile              : High@L4.1
    Format settings             : CABAC / 4 Ref Frames
    Format settings, CABAC      : Yes
    Format settings, ReFrames   : 4 frames
    Codec ID                    : V_MPEG4/ISO/AVC
    Duration                    : 1 h 27 min
    Bit rate                    : 3 262 kb/s
    Width                       : 1 920 pixels
    Height                      : 1 080 pixels
    Display aspect ratio        : 16:9
    Frame rate mode             : Constant
    Frame rate                  : 23.976 (24000/1001) FPS
    Color space                 : YUV
    Chroma subsampling          : 4:2:0
    Bit depth                   : 8 bits
    Scan type                   : Progressive
    Bits/(Pixel*Frame)          : 0.066
    Stream size                 : 1.99 GiB (46%)
    Title                       : Full HD1080p [CinemaniaHDD]
    Writing library             : x264 core 157 r2935 545de2f
    Encoding settings           : cabac=1 / ref=4 / deblock=1:0:0 / analyse=0x3:0x133 / me=tesa / subme=11 / psy=1 / psy_rd=1.00:0.00 / mixed_ref=1 / me_range=24 / chroma_me=1 / trellis=2 / 8x8dct=1 / cqm=0 / deadzone=21,11 / fast_pskip=0 / chroma_qp_offset=-2 / threads=34 / lookahead_threads=8 / sliced_threads=0 / nr=0 / decimate=1 / interlaced=0 / bluray_compat=0 / constrained_intra=0 / bframes=16 / b_pyramid=2 / b_adapt=2 / b_bias=0 / direct=3 / weightb=1 / open_gop=0 / weightp=2 / keyint=240 / keyint_min=24 / scenecut=40 / intra_refresh=0 / rc_lookahead=60 / rc=crf / mbtree=1 / crf=18.5 / qcomp=0.60 / qpmin=0 / qpmax=69 / qpstep=4 / vbv_maxrate=62500 / vbv_bufsize=78125 / crf_max=0.0 / nal_hrd=none / filler=0 / ip_ratio=1.40 / aq=1:1.00
    Default                     : Yes
    Forced                      : Yes
    Color range                 : Limited
    Color primaries             : BT.709
    Transfer characteristics    : BT.709
    Matrix coefficients         : BT.709

    Audio #1
    ID                          : 2
    Format                      : AC-3
    Format/Info                 : Audio Coding 3
    Commercial name             : Dolby Digital
    Codec ID                    : A_AC3
    Duration                    : 1 h 27 min
    Bit rate mode               : Constant
    Bit rate                    : 640 kb/s
    Channel(s)                  : 6 channels
    Channel layout              : L R C LFE Ls Rs
    Sampling rate               : 48.0 kHz
    Frame rate                  : 31.250 FPS (1536 SPF)
    Bit depth                   : 16 bits
    Compression mode            : Lossy
    Stream size                 : 400 MiB (9%)
    Title                       : Español Latino [CinemaniaHDD]
    Language                    : Spanish
    Service kind                : Complete Main
    Default                     : Yes
    Forced                      : No

    Audio #2
    ID                          : 3
    Format                      : DTS XLL
    Format/Info                 : Digital Theater Systems
    Commercial name             : DTS-HD Master Audio
    Codec ID                    : A_DTS
    Duration                    : 1 h 27 min
    Bit rate mode               : Variable
    Bit rate                    : 3 100 kb/s
    Channel(s)                  : 6 channels
    Channel layout              : C L R Ls Rs LFE
    Sampling rate               : 48.0 kHz
    Frame rate                  : 93.750 FPS (512 SPF)
    Bit depth                   : 24 bits
    Compression mode            : Lossless
    Stream size                 : 1.89 GiB (44%)
    Title                       : Ingles [CinemaniaHDD]
    Language                    : English
    Default                     : No
    Forced                      : No

    Text #1
    ID                          : 4
    Format                      : PGS
    Muxing mode                 : zlib
    Codec ID                    : S_HDMV/PGS
    Codec ID/Info               : Picture based subtitle format used on BDs/HD-DVDs
    Duration                    : 1 h 26 min
    Bit rate                    : 22.0 kb/s
    Count of elements           : 1496
    Stream size                 : 13.6 MiB (0%)
    Title                       : Español-PGS [CinemaniaHDD]
    Language                    : Spanish
    Default                     : No
    Forced                      : No

    Text #2
    ID                          : 5
    Format                      : PGS
    Muxing mode                 : zlib
    Codec ID                    : S_HDMV/PGS
    Codec ID/Info               : Picture based subtitle format used on BDs/HD-DVDs
    Duration                    : 1 h 21 min
    Bit rate                    : 26.3 kb/s
    Count of elements           : 1464
    Stream size                 : 15.4 MiB (0%)
    Title                       : Ingles-PGS [CinemaniaHDD]
    Language                    : English
    Default                     : No
    Forced                      : No

    Text #3
    ID                          : 6
    Format                      : UTF-8
    Codec ID                    : S_TEXT/UTF8
    Codec ID/Info               : UTF-8 Plain Text
    Duration                    : 4 s 838 ms
    Bit rate                    : 74 b/s
    Count of elements           : 1
    Stream size                 : 45.0 Bytes (0%)
    Title                       : Forzados-SRT [CinemaniaHDD]
    Language                    : Spanish
    Default                     : Yes
    Forced                      : No

    Text #4
    ID                          : 7
    Format                      : UTF-8
    Codec ID                    : S_TEXT/UTF8
    Codec ID/Info               : UTF-8 Plain Text
    Duration                    : 1 h 21 min
    Bit rate                    : 39 b/s
    Count of elements           : 747
    Stream size                 : 23.3 KiB (0%)
    Title                       : Español-SRT [CinemaniaHDD]
    Language                    : Spanish
    Default                     : No
    Forced                      : No

    Menu
    00:00:00.000                : en:Chapter 1
    00:09:17.139                : en:Chapter 2
    00:18:36.198                : en:Chapter 3
    00:28:10.063                : en:Chapter 4
    00:36:36.068                : en:Chapter 5
    00:44:25.454                : en:Chapter 6
    00:54:17.837                : en:Chapter 7
    01:04:07.468                : en:Chapter 8
    01:12:41.982                : en:Chapter 9
    01:22:15.013                : en:Chapter 10

  • Peso: 4.28 GiB

Sinopsis

Descargar Gretel y Hansel: Un siniestro cuento de hadas (2020) PLACEBO Full HD 1080p Latino. A principios del siglo XIV en Baviera, Gretel y Hansel viven en la miseria desde que su padre falleció. Por la falta de recursos su padrastro se embarca con ellos en una huida por el bosque donde un cazador les indica el camino seguro. Así, los hermanos encontrarán la cabaña de Holda, una simpática mujer. Todo va bien y la comida abunda, pero algo les huele mal. Gretel y Hansel se van a enfrentar a sus peores miedos.

Ficha técnica

Video trailer de la película

Enlaces de descarga

Rip de Bluray

Descargar Gretel y Hansel: Un siniestro cuento de hadas (2020) PLACEBO Full HD 1080p Latino




Aportes de DPeliculasHDmega la pass es:dpeliculashdmega.org Aportes de CinemaniaHD la pass es:cinemaniahdd.com

Películas relacionadas

  • Zola (2020) PLACEBO Full HD 1080p Latino

    Zola (2020) PLACEBO Full HD 1080p Latino

    2020
    Zola (2020) PLACEBO Full HD 1080p Latino

    1h 26m 2020

    Descargar Zola (2020) PLACEBO Full HD 1080p Latino. Una camarera accede a acompañar a una bailarina...

    Director: Sheri Davani

    Género: Comedia

    Actores: Ts Madison

  • Hocus Pocus: Abracadabra (1993) 1080p Latino

    Hocus Pocus: Abracadabra (1993) 1080p Latino

    1993
    Hocus Pocus: Abracadabra (1993) 1080p Latino

    1h 36m 1993

    Descargar Hocus Pocus: Abracadabra (1993) 1080p Latino. Tres brujas del siglo XII son invocadas durante...

    Director: Kenny Ortega

    Género: Comedia

    Actores: Vinessa Shaw

  • Hocus Pocus: Abracadabra (1993) REMUX 1080p Latino

    Hocus Pocus: Abracadabra (1993) REMUX 1080p Latino

    1993
    Hocus Pocus: Abracadabra (1993) REMUX 1080p Latino

    1h 36m 1993

    Descargar Hocus Pocus: Abracadabra (1993) REMUX 1080p Latino. Tres brujas del siglo XII son invocadas...

    Director: Kenny Ortega

    Género: Comedia

    Actores: Vinessa Shaw

descargar Gretel y Hansel: Un siniestro cuento de hadas (2020) PLACEBO Full HD 1080p Latino Full 1080p 1080p gratis, Gretel y Hansel: Un siniestro cuento de hadas (2020) PLACEBO Full HD 1080p Latino Full 1080p mega 1 link, Gretel y Hansel: Un siniestro cuento de hadas (2020) PLACEBO Full HD 1080p Latino Full 1080p pelicula completa, descargar Gretel y Hansel: Un siniestro cuento de hadas (2020) PLACEBO Full HD 1080p Latino Full 1080p gratis en mega.

Gretel y Hansel: Un siniestro cuento de hadas (2020) PLACEBO Full HD 1080p Latino pelicula full hd, Gretel y Hansel: Un siniestro cuento de hadas (2020) PLACEBO Full HD 1080p Latino mega latino, Gretel y Hansel: Un siniestro cuento de hadas (2020) PLACEBO Full HD 1080p Latino 4k latino, Gretel y Hansel: Un siniestro cuento de hadas (2020) PLACEBO Full HD 1080p Latino pelicula completa, Gretel y Hansel: Un siniestro cuento de hadas (2020) PLACEBO Full HD 1080p Latino descargar gratis, descargar Gretel y Hansel: Un siniestro cuento de hadas (2020) PLACEBO Full HD 1080p Latino pelicula latino, Gretel y Hansel: Un siniestro cuento de hadas (2020) PLACEBO Full HD 1080p Latino 1 link mega, Gretel y Hansel: Un siniestro cuento de hadas (2020) PLACEBO Full HD 1080p Latino 1 link google drive, Gretel y Hansel: Un siniestro cuento de hadas (2020) PLACEBO Full HD 1080p Latino hd 1080p latino.
Comentarios 0