×

¿Problemas para descargar con Mozilla, EDGE? Deshabilita la opción "Abrir vinculos en una pestaña nueva" tal como lo muestra ésta imagen.

Gremlins (1984) 4K HDR REMUX 1080p Latino – CMHDD

345 vistas

Información de Gremlins (1984) 4K HDR REMUX 1080p Latino – CMHDD

Datos de la película

  • Calidad: 4K HDR
  • Audio: Español Latino AC3 2.0 BLURAY - Ingles DTS 5.1 BLURAY
  • Subtitulos: Español Latino PGS
  • Resolución: 840x2160p
  • Formato: MKV
  • Codec: HEVC
  • Encoder: Dracarys
  • Mediainfo: Clic para Mostrar Datos Ver
  • Format                      : Matroska
    Format version              : Version 4
    File size                   : 49.3 GiB
    Duration                    : 1 h 46 min
    Overall bit rate mode       : Variable
    Overall bit rate            : 66.5 Mb/s
    Movie name                  : Gremlins (1984) 4K HDR REMUX 1080p Latino - CMHDD
    Encoded date                : UTC 2020-12-24 01:48:10
    Writing application         : mkvmerge v51.0.0 ('I Wish') 64-bit
    Writing library             : libebml v1.4.0 + libmatroska v1.6.2

    Video
    ID                          : 1
    Format                      : HEVC
    Format/Info                 : High Efficiency Video Coding
    Format profile              : Main 10@L5.1@High
    HDR format                  : SMPTE ST 2086, HDR10 compatible
    Codec ID                    : V_MPEGH/ISO/HEVC
    Duration                    : 1 h 46 min
    Bit rate                    : 62.2 Mb/s
    Width                       : 3 840 pixels
    Height                      : 2 160 pixels
    Display aspect ratio        : 16:9
    Frame rate mode             : Constant
    Frame rate                  : 23.976 (24000/1001) FPS
    Color space                 : YUV
    Chroma subsampling          : 4:2:0 (Type 2)
    Bit depth                   : 10 bits
    Bits/(Pixel*Frame)          : 0.313
    Stream size                 : 46.1 GiB (93%)
    Writing library             : ATEME Titan File 3.9.0 (4.9.0.0)        
    Default                     : Yes
    Forced                      : No
    Color range                 : Limited
    Color primaries             : BT.2020
    Transfer characteristics    : PQ
    Matrix coefficients         : BT.2020 non-constant
    Mastering display color pri : Display P3
    Mastering display luminance : min: 0.0050 cd/m2, max: 4000 cd/m2
    Maximum Content Light Level : 1193 cd/m2
    Maximum Frame-Average Light : 97 cd/m2

    Audio #1
    ID                          : 2
    Format                      : DTS XLL
    Format/Info                 : Digital Theater Systems
    Commercial name             : DTS-HD Master Audio
    Codec ID                    : A_DTS
    Duration                    : 1 h 46 min
    Bit rate mode               : Variable
    Bit rate                    : 4 127 kb/s
    Channel(s)                  : 6 channels
    Channel layout              : C L R Ls Rs LFE
    Sampling rate               : 48.0 kHz
    Frame rate                  : 93.750 FPS (512 SPF)
    Bit depth                   : 24 bits
    Compression mode            : Lossless
    Stream size                 : 3.06 GiB (6%)
    Language                    : English
    Default                     : No
    Forced                      : No

    Audio #2
    ID                          : 3
    Format                      : AC-3
    Format/Info                 : Audio Coding 3
    Commercial name             : Dolby Digital
    Codec ID                    : A_AC3
    Duration                    : 1 h 46 min
    Bit rate mode               : Constant
    Bit rate                    : 192 kb/s
    Channel(s)                  : 2 channels
    Channel layout              : L R
    Sampling rate               : 48.0 kHz
    Frame rate                  : 31.250 FPS (1536 SPF)
    Compression mode            : Lossy
    Stream size                 : 146 MiB (0%)
    Language                    : Spanish
    Service kind                : Complete Main
    Default                     : Yes
    Forced                      : No

    Text
    ID                          : 4
    Format                      : PGS
    Muxing mode                 : zlib
    Codec ID                    : S_HDMV/PGS
    Codec ID/Info               : Picture based subtitle format used on BDs/HD-DVDs
    Duration                    : 1 h 42 min
    Bit rate                    : 18.3 kb/s
    Count of elements           : 1818
    Stream size                 : 13.4 MiB (0%)
    Language                    : Spanish
    Default                     : No
    Forced                      : No
     

  • Peso: 49.3 GiB

Sinopsis

Rand es un viajante que un día regala a su hijo Billy una tierna y extraña criatura, un mogwai. El inocente regalo, sin embargo, será el origen de toda una ola de gamberradas y fechorías en un pequeño pueblo de Estados Unidos. Todo empieza cuando son infringidas, una tras otra, las tres reglas básicas que deben seguirse para cuidar a un mogwai: no darle de comer después de medianoche, no mojarlo y evitar que le dé la luz del Sol.

Ficha técnica

Video trailer de la película

Enlaces de descarga

Rip de Bluray

Descargar Gremlins (1984) 4K HDR REMUX 1080p Latino – CMHDD


Aportes de DPeliculasHDmega la pass es:dpeliculashdmega.org Aportes de CinemaniaHD la pass es:cinemaniahdd.com
Guardado en : Comedia , Fantasía , Terror

Películas relacionadas

  • Tren Bala (2022) WEB-DL 4K UHD HDR Latino

    Tren Bala (2022) WEB-DL 4K UHD HDR Latino

    2022
    Tren Bala (2022) WEB-DL 4K UHD HDR Latino

    2h 7m 2022

    Descargar Tren Bala (2022) WEB-DL 4K UHD HDR Latino. El desafortunado asesino "Catarina" está decidido...

    Director: Paul Barry

    Género: 4K HDR

    Actores: Zooey Miyoshi

  • Tren Bala (2022) AMZN WEB-DL 1080p Latino

    Tren Bala (2022) AMZN WEB-DL 1080p Latino

    2022
    Tren Bala (2022) AMZN WEB-DL 1080p Latino

    2h 7m 2022

    Descargar Tren Bala (2022) AMZN WEB-DL 1080p Latino. Cinco asesinos a sueldo se encuentran a bordo de...

    Director: Paul Barry

    Género: Acción

    Actores: Zooey Miyoshi

  • Rick y Morty (2022) Temporada 6 WEB-DL 1080p Latino

    Rick y Morty (2022) Temporada 6 WEB-DL 1080p Latino

    2013
    Rick y Morty (2022) Temporada 6 WEB-DL 1080p Latino

    0h 22m 2013

    Comedia animada que narra las aventuras de un científico loco Rick Sánchez, que regresa después de...

    Director: Justin Roiland

    Género: Action & Adventure

    Actores: Spencer Grammer

  • Poltergeist (1982) REMUX 1080p Latino – CMHDD

    Poltergeist (1982) REMUX 1080p Latino – CMHDD

    1982
    Poltergeist (1982) REMUX 1080p Latino – CMHDD

    1h 54m 1982

    Una familia americana de clase media se traslada a vivir e una nueva casa en un aparentemente idílico...

    Director: Tobe Hooper

    Género: Terror

    Actores: Zelda Rubinstein

descargar Gremlins (1984) 4K HDR REMUX 1080p Latino – CMHDD 4K HDR 1080p gratis, Gremlins (1984) 4K HDR REMUX 1080p Latino – CMHDD 4K HDR mega 1 link, Gremlins (1984) 4K HDR REMUX 1080p Latino – CMHDD 4K HDR pelicula completa, descargar Gremlins (1984) 4K HDR REMUX 1080p Latino – CMHDD 4K HDR gratis en mega.

Gremlins (1984) 4K HDR REMUX 1080p Latino – CMHDD pelicula full hd, Gremlins (1984) 4K HDR REMUX 1080p Latino – CMHDD mega latino, Gremlins (1984) 4K HDR REMUX 1080p Latino – CMHDD 4k latino, Gremlins (1984) 4K HDR REMUX 1080p Latino – CMHDD pelicula completa, Gremlins (1984) 4K HDR REMUX 1080p Latino – CMHDD descargar gratis, descargar Gremlins (1984) 4K HDR REMUX 1080p Latino – CMHDD pelicula latino, Gremlins (1984) 4K HDR REMUX 1080p Latino – CMHDD 1 link mega, Gremlins (1984) 4K HDR REMUX 1080p Latino – CMHDD 1 link google drive, Gremlins (1984) 4K HDR REMUX 1080p Latino – CMHDD hd 1080p latino.
Comentarios 0