×

¿Problemas para descargar con Mozilla, EDGE? Deshabilita la opción "Abrir vinculos en una pestaña nueva" tal como lo muestra ésta imagen.

Grandes Espias (2020) 4K UHD HDR Web-DL Latino

438 vistas

Información de Grandes Espias (2020) 4K UHD HDR Web-DL Latino

Datos de la película

  • Calidad: WEBDL
  • Audio: Español Latino E-AC3 5.1 AMAZON - Ingles E-AC3 5.1 AMAZON
  • Subtitulos: Español Latino SRT - Ingles SRT
  • Resolución: 3840x2160p
  • Formato: MKV
  • Codec: HEVC
  • Encoder: Melkor
  • Mediainfo: Clic para Mostrar Datos Ver
  • Grandes Espias (2020) UHD HDR WEB Latino.mkv
    Format                      : Matroska
    Format version              : Version 4
    File size                   : 11.3 GiB
    Duration                    : 1 h 40 min
    Overall bit rate            : 16.1 Mb/s
    Movie name                  : My Spy (2020) CinemaniaHDD.Net
    Encoded date                : UTC 2020-09-09 02:22:58
    Writing application         : mkvmerge v46.0.0 ('No Deeper Escape') 64-bit
    Writing library             : libebml v1.3.10 + libmatroska v1.5.2
    Attachments                 : CINEMANIAHD.png

    Video
    ID                          : 1
    Format                      : HEVC
    Format/Info                 : High Efficiency Video Coding
    Format profile              : Main 10@L5@Main
    HDR format                  : SMPTE ST 2094 App 4, Version 0
    Codec ID                    : V_MPEGH/ISO/HEVC
    Duration                    : 1 h 40 min
    Bit rate                    : 14.9 Mb/s
    Width                       : 3 840 pixels
    Height                      : 2 160 pixels
    Display aspect ratio        : 16:9
    Frame rate mode             : Constant
    Frame rate                  : 23.976 (24000/1001) FPS
    Standard                    : NTSC
    Color space                 : YUV
    Chroma subsampling          : 4:2:0 (Type 2)
    Bit depth                   : 10 bits
    Bits/(Pixel*Frame)          : 0.075
    Stream size                 : 10.4 GiB (92%)
    Title                       : Web 2160p HDR [CinemaniaHDD]
    Language                    : English
    Default                     : Yes
    Forced                      : No
    Color range                 : Limited
    Color primaries             : BT.2020
    Transfer characteristics    : PQ
    Matrix coefficients         : BT.2020 non-constant
    Mastering display color pri : Display P3
    Mastering display luminance : min: 0.0001 cd/m2, max: 1000 cd/m2
    Maximum Content Light Level : 676 cd/m2
    Maximum Frame-Average Light : 461 cd/m2

    Audio #1
    ID                          : 2
    Format                      : E-AC-3
    Format/Info                 : Enhanced AC-3
    Commercial name             : Dolby Digital Plus
    Codec ID                    : A_EAC3
    Duration                    : 1 h 40 min
    Bit rate mode               : Constant
    Bit rate                    : 640 kb/s
    Channel(s)                  : 6 channels
    Channel layout              : L R C LFE Ls Rs
    Sampling rate               : 48.0 kHz
    Frame rate                  : 31.250 FPS (1536 SPF)
    Compression mode            : Lossy
    Delay relative to video     : 5 s 573 ms
    Stream size                 : 460 MiB (4%)
    Title                       : Español Latino [CinemaniaHDD]
    Language                    : Spanish
    Service kind                : Complete Main
    Default                     : Yes
    Forced                      : No

    Audio #2
    ID                          : 3
    Format                      : E-AC-3
    Format/Info                 : Enhanced AC-3
    Commercial name             : Dolby Digital Plus
    Codec ID                    : A_EAC3
    Duration                    : 1 h 40 min
    Bit rate mode               : Constant
    Bit rate                    : 640 kb/s
    Channel(s)                  : 6 channels
    Channel layout              : L R C LFE Ls Rs
    Sampling rate               : 48.0 kHz
    Frame rate                  : 31.250 FPS (1536 SPF)
    Compression mode            : Lossy
    Stream size                 : 460 MiB (4%)
    Title                       : Ingles [CinemaniaHDD]
    Language                    : English
    Service kind                : Complete Main
    Default                     : No
    Forced                      : No

    Text #1
    ID                          : 4
    Format                      : UTF-8
    Codec ID                    : S_TEXT/UTF8
    Codec ID/Info               : UTF-8 Plain Text
    Duration                    : 1 h 32 min
    Bit rate                    : 1 b/s
    Count of elements           : 24
    Stream size                 : 738 Bytes (0%)
    Title                       : Forzados-SRT [CinemaniaHDD]
    Language                    : Spanish
    Default                     : Yes
    Forced                      : No

    Text #2
    ID                          : 5
    Format                      : UTF-8
    Codec ID                    : S_TEXT/UTF8
    Codec ID/Info               : UTF-8 Plain Text
    Duration                    : 1 h 39 min
    Bit rate                    : 62 b/s
    Count of elements           : 1606
    Stream size                 : 45.6 KiB (0%)
    Title                       : Español-SRT [CinemaniaHDD]
    Language                    : Spanish
    Default                     : No
    Forced                      : No

    Text #3
    ID                          : 6
    Format                      : UTF-8
    Codec ID                    : S_TEXT/UTF8
    Codec ID/Info               : UTF-8 Plain Text
    Duration                    : 1 h 31 min
    Bit rate                    : 71 b/s
    Count of elements           : 1480
    Stream size                 : 48.1 KiB (0%)
    Title                       : Ingles-SRT [CinemaniaHDD]
    Language                    : English
    Default                     : No
    Forced                      : No

  • Peso: 11.3 GiB

Sinopsis

Descargar Grandes Espias (2020) 4K UHD HDR Web-DL Latino. JJ es uno de los agentes más reputados de la CIA que cuenta con una rutina predeterminada: cumplir la misión y no dejar cabos sueltos. Todo cambia cuando Bobbi, una niña de 9 años, le graba confesando que es miembro de uno de los Servicios de Inteligencia más reputados del mundo. Ahora, el veterano agente deberá enseñar a Bobbi cómo convertirse en una espía de primera si no quiere ser descubierto, recorriendo un camino que enseñará a ambos lecciones que no esperaban.

Ficha técnica

Video trailer de la película

Enlaces de descarga

Rip de Bluray

Descargar Grandes Espias (2020) 4K UHD HDR Web-DL Latino




Aportes de DPeliculasHDmega la pass es:dpeliculashdmega.org Aportes de CinemaniaHD la pass es:cinemaniahdd.com
Guardado en : 4K HDR , 4K UHD , Acción , Comedia , Familia

Películas relacionadas

descargar Grandes Espias (2020) 4K UHD HDR Web-DL Latino WEBDL 1080p gratis, Grandes Espias (2020) 4K UHD HDR Web-DL Latino WEBDL mega 1 link, Grandes Espias (2020) 4K UHD HDR Web-DL Latino WEBDL pelicula completa, descargar Grandes Espias (2020) 4K UHD HDR Web-DL Latino WEBDL gratis en mega.

Grandes Espias (2020) 4K UHD HDR Web-DL Latino pelicula full hd, Grandes Espias (2020) 4K UHD HDR Web-DL Latino mega latino, Grandes Espias (2020) 4K UHD HDR Web-DL Latino 4k latino, Grandes Espias (2020) 4K UHD HDR Web-DL Latino pelicula completa, Grandes Espias (2020) 4K UHD HDR Web-DL Latino descargar gratis, descargar Grandes Espias (2020) 4K UHD HDR Web-DL Latino pelicula latino, Grandes Espias (2020) 4K UHD HDR Web-DL Latino 1 link mega, Grandes Espias (2020) 4K UHD HDR Web-DL Latino 1 link google drive, Grandes Espias (2020) 4K UHD HDR Web-DL Latino hd 1080p latino.
Comentarios 0