×

¿Problemas para descargar con Mozilla, EDGE? Deshabilita la opción "Abrir vinculos en una pestaña nueva" tal como lo muestra ésta imagen.

Gran Turismo (2023) MA WEB-DL 1080p Latino

196 vistas

Información de Gran Turismo (2023) MA WEB-DL 1080p Latino

Datos de la película

  • Calidad: WEBDL
  • Audio: Español Latino AC3 5.1 WEB-DL - Ingles AC3 5.1 WEB-DL
  • Subtitulos: Español Latino SRT- FORZADOS SRT
  • Resolución: 1920x1080p
  • Formato: MKV
  • Codec: H.264
  • Encoder: Melkor
  • Mediainfo: Clic para Mostrar Datos Ver
  • Gran Turismo (2023) MA WEB-DL 1080p Latino.mkv
    Format                      : Matroska
    Format version              : Version 4
    File size                   : 8.38 GiB
    Duration                    : 2 h 14 min
    Overall bit rate            : 8 941 kb/s
    Movie name                  : Gran Turismo (2023) CinemaniaHDD.Net
    Encoded date                : UTC 2023-09-26 05:31:21
    Writing application         : mkvmerge v56.1.0 ('My Friend') 64-bit
    Writing library             : libebml v1.4.2 + libmatroska v1.6.4
    Attachments                 : CINEMANIAHD.png
    Site                        : CinemaniaHDD.Net
    Uploader                    : Melkor

    Video
    ID                          : 1
    Format                      : AVC
    Format/Info                 : Advanced Video Codec
    Format profile              : High@L4
    Format settings             : CABAC / 4 Ref Frames
    Format settings, CABAC      : Yes
    Format settings, Reference  : 4 frames
    Codec ID                    : V_MPEG4/ISO/AVC
    Duration                    : 2 h 14 min
    Bit rate                    : 8 000 kb/s
    Width                       : 1 920 pixels
    Height                      : 1 080 pixels
    Display aspect ratio        : 16:9
    Frame rate mode             : Constant
    Frame rate                  : 23.976 (24000/1001) FPS
    Color space                 : YUV
    Chroma subsampling          : 4:2:0
    Bit depth                   : 8 bits
    Scan type                   : Progressive
    Bits/(Pixel*Frame)          : 0.161
    Stream size                 : 7.42 GiB (89%)
    Title                       : Web HD1080p [CinemaniaHDD]
    Writing library             : x264 core 164 r3094 bfc87b7
    Encoding settings           : cabac=1 / ref=4 / deblock=1:-1:-1 / analyse=0x3:0x133 / me=umh / subme=9 / psy=1 / psy_rd=1.00:0.15 / mixed_ref=1 / me_range=16 / chroma_me=1 / trellis=2 / 8x8dct=1 / cqm=0 / deadzone=21,11 / fast_pskip=1 / chroma_qp_offset=-3 / threads=12 / lookahead_threads=1 / sliced_threads=0 / nr=0 / decimate=1 / interlaced=0 / bluray_compat=0 / stitchable=1 / constrained_intra=0 / bframes=3 / b_pyramid=2 / b_adapt=2 / b_bias=0 / direct=3 / weightb=1 / open_gop=0 / weightp=2 / keyint=48 / keyint_min=4 / scenecut=0 / intra_refresh=0 / rc_lookahead=48 / rc=abr / mbtree=1 / bitrate=8000 / ratetol=1.0 / qcomp=0.60 / qpmin=0 / qpmax=69 / qpstep=4 / vbv_maxrate=8800 / vbv_bufsize=16000 / nal_hrd=none / filler=0 / ip_ratio=1.40 / aq=1:1.00
    Language                    : English
    Default                     : Yes
    Forced                      : Yes
    Color range                 : Limited
    Color primaries             : BT.709
    Transfer characteristics    : BT.709
    Matrix coefficients         : BT.709

    Audio #1
    ID                          : 2
    Format                      : AC-3
    Format/Info                 : Audio Coding 3
    Commercial name             : Dolby Digital
    Codec ID                    : A_AC3
    Duration                    : 2 h 14 min
    Bit rate mode               : Constant
    Bit rate                    : 384 kb/s
    Channel(s)                  : 6 channels
    Channel layout              : L R C LFE Ls Rs
    Sampling rate               : 48.0 kHz
    Frame rate                  : 31.250 FPS (1536 SPF)
    Compression mode            : Lossy
    Stream size                 : 369 MiB (4%)
    Title                       : Español Latino [CinemaniaHDD]
    Language                    : Spanish
    Service kind                : Complete Main
    Default                     : Yes
    Forced                      : Yes

    Audio #2
    ID                          : 3
    Format                      : E-AC-3
    Format/Info                 : Enhanced AC-3
    Commercial name             : Dolby Digital Plus
    Codec ID                    : A_EAC3
    Duration                    : 2 h 14 min
    Bit rate mode               : Constant
    Bit rate                    : 640 kb/s
    Channel(s)                  : 6 channels
    Channel layout              : L R C LFE Ls Rs
    Sampling rate               : 48.0 kHz
    Frame rate                  : 31.250 FPS (1536 SPF)
    Compression mode            : Lossy
    Delay relative to video     : 12 ms
    Stream size                 : 615 MiB (7%)
    Title                       : Ingles [CinemaniaHDD]
    Language                    : English
    Service kind                : Complete Main
    Default                     : No
    Forced                      : No

    Text #1
    ID                          : 4
    Format                      : UTF-8
    Codec ID                    : S_TEXT/UTF8
    Codec ID/Info               : UTF-8 Plain Text
    Duration                    : 2 h 12 min
    Bit rate                    : 3 b/s
    Count of elements           : 113
    Stream size                 : 3.36 KiB (0%)
    Title                       : Forzados-SRT [CinemaniaHDD]
    Language                    : Spanish
    Default                     : Yes
    Forced                      : Yes

    Text #2
    ID                          : 5
    Format                      : UTF-8
    Codec ID                    : S_TEXT/UTF8
    Codec ID/Info               : UTF-8 Plain Text
    Duration                    : 2 h 12 min
    Bit rate                    : 51 b/s
    Count of elements           : 1648
    Stream size                 : 50.0 KiB (0%)
    Title                       : Español-SRT [CinemaniaHDD]
    Language                    : Spanish
    Default                     : No
    Forced                      : No

    Text #3
    ID                          : 6
    Format                      : UTF-8
    Codec ID                    : S_TEXT/UTF8
    Codec ID/Info               : UTF-8 Plain Text
    Duration                    : 2 h 1 min
    Bit rate                    : 57 b/s
    Count of elements           : 1519
    Stream size                 : 51.5 KiB (0%)
    Title                       : Ingles-SRT [CinemaniaHDD]
    Language                    : English
    Default                     : No
    Forced                      : No

    Menu
    00:00:00.000                : Studio Logos
    00:01:08.980                : Scene 2
    00:02:08.980                : Title Sequence
    00:02:24.980                : Scene 4
    00:03:38.980                : Scene 5
    00:04:21.980                : Scene 6
    00:05:29.980                : Scene 7
    00:06:06.980                : Scene 8
    00:08:15.980                : Scene 9
    00:08:21.980                : Scene 10
    00:09:14.980                : Scene 11
    00:09:52.980                : Scene 12
    00:10:59.980                : Scene 13
    00:13:01.980                : Scene 14
    00:14:53.980                : Scene 15
    00:16:43.980                : Scene 16
    00:16:59.980                : Scene 17
    00:17:50.980                : Scene 18
    00:18:53.980                : Scene 19
    00:19:31.980                : Scene 20
    00:20:37.980                : Scene 21
    00:23:05.980                : Scene 22
    00:25:39.980                : Scene 23
    00:27:07.980                : Scene 24
    00:29:41.980                : Scene 25
    00:30:41.980                : Scene 26
    00:33:58.980                : Scene 27
    00:38:27.980                : Scene 28
    00:39:45.980                : Scene 29
    00:40:34.980                : Scene 30
    00:42:40.980                : Scene 31
    00:43:13.980                : Scene 32
    00:44:09.980                : Scene 33
    00:52:37.980                : Scene 34
    00:53:16.980                : Scene 35
    00:55:13.980                : Scene 36
    00:56:11.980                : Scene 37
    00:57:44.980                : Scene 38
    01:03:43.980                : Scene 39
    01:04:56.980                : Scene 40
    01:06:35.980                : Scene 41
    01:12:28.980                : Scene 42
    01:15:06.980                : Scene 43
    01:15:53.980                : Scene 44
    01:17:39.980                : Scene 45
    01:19:33.980                : Scene 46
    01:20:13.980                : Scene 47
    01:20:54.980                : Scene 48
    01:25:38.980                : Scene 49
    01:28:01.980                : Scene 50
    01:30:29.980                : Scene 51
    01:36:05.980                : Scene 52
    01:38:21.980                : Scene 53
    01:39:39.980                : Scene 54
    01:40:29.980                : Scene 55
    01:42:41.980                : Scene 56
    01:43:22.980                : Scene 57
    01:43:35.980                : Scene 58
    01:46:02.980                : Scene 59
    01:46:41.980                : Scene 60
    01:50:50.980                : Scene 61
    01:54:06.980                : Scene 62
    01:55:39.980                : Scene 63
    01:57:43.980                : Scene 64
    02:05:30.980                : Acknowledgement
    02:06:22.980                : End Credits

  • Peso: 8.38 GiB

Sinopsis

Descargar Gran Turismo (2023) MA WEB-DL 1080p Latino. Basada en una historia real, la película cuenta cómo cumplió su sueño un adolescente que jugaba a Gran Turismo, juego en el que ganó una serie de competiciones patrocinadas por Nissan, y que le sirvió de trampolín para acabar convirtiéndose en un piloto de carreras profesional.

Ficha técnica

Video trailer de la película

Enlaces de descarga

Rip de Bluray

Descargar Gran Turismo (2023) MA WEB-DL 1080p Latino




Aportes de DPeliculasHDmega la pass es:dpeliculashdmega.org Aportes de CinemaniaHD la pass es:cinemaniahdd.com Aportes recientes:cinemaniahdd.net
Guardado en : Acción , Aventura , Drama

Películas relacionadas

  • Milagros Inesperados (1999) 1080p Latino-CMHDD

    Milagros Inesperados (1999) 1080p Latino-CMHDD

    1999
    Milagros Inesperados (1999) 1080p Latino-CMHDD

    3h 9m 1999

    Descargar Milagros Inesperados (1999) 1080p Latino-CMHDD. En el sur de los Estados Unidos, en plena Depresión,...

    Director: Susan Malerstein

    Género: Crimen

    Actores: William Sadler

  • Milagros Inesperados (1999) REMUX 1080p Latino-CMHDD

    Milagros Inesperados (1999) REMUX 1080p Latino-CMHDD

    1999
    Milagros Inesperados (1999) REMUX 1080p Latino-CMHDD

    3h 9m 1999

    Descargar Milagros Inesperados (1999) REMUX 1080p Latino-CMHDD. En el sur de los Estados Unidos, en plena...

    Director: Susan Malerstein

    Género: Crimen

    Actores: William Sadler

descargar Gran Turismo (2023) MA WEB-DL 1080p Latino WEBDL 1080p gratis, Gran Turismo (2023) MA WEB-DL 1080p Latino WEBDL mega 1 link, Gran Turismo (2023) MA WEB-DL 1080p Latino WEBDL pelicula completa, descargar Gran Turismo (2023) MA WEB-DL 1080p Latino WEBDL gratis en mega.

Gran Turismo (2023) MA WEB-DL 1080p Latino pelicula full hd, Gran Turismo (2023) MA WEB-DL 1080p Latino mega latino, Gran Turismo (2023) MA WEB-DL 1080p Latino 4k latino, Gran Turismo (2023) MA WEB-DL 1080p Latino pelicula completa, Gran Turismo (2023) MA WEB-DL 1080p Latino descargar gratis, descargar Gran Turismo (2023) MA WEB-DL 1080p Latino pelicula latino, Gran Turismo (2023) MA WEB-DL 1080p Latino 1 link mega, Gran Turismo (2023) MA WEB-DL 1080p Latino 1 link google drive, Gran Turismo (2023) MA WEB-DL 1080p Latino hd 1080p latino.
Comentarios 0