×

¿Problemas para descargar con Mozilla, EDGE? Deshabilita la opción "Abrir vinculos en una pestaña nueva" tal como lo muestra ésta imagen.

Gran Turismo (2023) WEB-DL 4K UHD HDR Latino

297 vistas

Información de Gran Turismo (2023) WEB-DL 4K UHD HDR Latino

Datos de la película

  • Calidad: WEBDL
  • Audio: Español Latino AC3 5.1 WEB-DL - Ingles AC3 5.1 WEB-DL
  • Subtitulos: Español Latino SRT- FORZADOS SRT
  • Resolución: 3840x2040p
  • Formato: MKV
  • Codec: HEVC
  • Encoder: Melkor
  • Mediainfo: Clic para Mostrar Datos Ver
  • Gran Turismo (2023) WEB UHD HDR Latino.mkv
    Format                      : Matroska
    Format version              : Version 4
    File size                   : 24.1 GiB
    Duration                    : 2 h 14 min
    Overall bit rate            : 25.7 Mb/s
    Movie name                  : Gran Turismo (2023) CinemaniaHDD.Net
    Encoded date                : UTC 2023-09-26 18:12:45
    Writing application         : mkvmerge v56.1.0 ('My Friend') 64-bit
    Writing library             : libebml v1.4.2 + libmatroska v1.6.4
    Attachments                 : CINEMANIAHD.png
    Site                        : CinemaniaHDD.Net
    Uploader                    : Melkor

    Video
    ID                          : 1
    Format                      : HEVC
    Format/Info                 : High Efficiency Video Coding
    Format profile              : Main 10@L5@High
    HDR format                  : SMPTE ST 2086, HDR10 compatible
    Codec ID                    : V_MPEGH/ISO/HEVC
    Duration                    : 2 h 14 min
    Bit rate                    : 24.6 Mb/s
    Width                       : 3 840 pixels
    Height                      : 2 020 pixels
    Display aspect ratio        : 1.901
    Frame rate mode             : Constant
    Frame rate                  : 23.976 (24000/1001) FPS
    Color space                 : YUV
    Chroma subsampling          : 4:2:0 (Type 2)
    Bit depth                   : 10 bits
    Bits/(Pixel*Frame)          : 0.132
    Stream size                 : 23.1 GiB (96%)
    Title                       : Web 2160p HDR [CinemaniaHDD]
    Language                    : English
    Default                     : Yes
    Forced                      : No
    Color range                 : Limited
    Color primaries             : BT.2020
    Transfer characteristics    : PQ
    Matrix coefficients         : BT.2020 non-constant
    Mastering display color pri : BT.2020
    Mastering display luminance : min: 0.0050 cd/m2, max: 1000 cd/m2
    Maximum Content Light Level : 741 cd/m2
    Maximum Frame-Average Light : 297 cd/m2

    Audio #1
    ID                          : 2
    Format                      : AC-3
    Format/Info                 : Audio Coding 3
    Commercial name             : Dolby Digital
    Codec ID                    : A_AC3
    Duration                    : 2 h 14 min
    Bit rate mode               : Constant
    Bit rate                    : 384 kb/s
    Channel(s)                  : 6 channels
    Channel layout              : L R C LFE Ls Rs
    Sampling rate               : 48.0 kHz
    Frame rate                  : 31.250 FPS (1536 SPF)
    Compression mode            : Lossy
    Stream size                 : 369 MiB (1%)
    Title                       : Español Latino [CinemaniaHDD]
    Language                    : Spanish
    Service kind                : Complete Main
    Default                     : Yes
    Forced                      : Yes

    Audio #2
    ID                          : 3
    Format                      : E-AC-3
    Format/Info                 : Enhanced AC-3
    Commercial name             : Dolby Digital Plus
    Codec ID                    : A_EAC3
    Duration                    : 2 h 14 min
    Bit rate mode               : Constant
    Bit rate                    : 640 kb/s
    Channel(s)                  : 6 channels
    Channel layout              : L R C LFE Ls Rs
    Sampling rate               : 48.0 kHz
    Frame rate                  : 31.250 FPS (1536 SPF)
    Compression mode            : Lossy
    Delay relative to video     : 12 ms
    Stream size                 : 615 MiB (2%)
    Title                       : Ingles [CinemaniaHDD]
    Language                    : English
    Service kind                : Complete Main
    Default                     : No
    Forced                      : No

    Text #1
    ID                          : 4
    Format                      : UTF-8
    Codec ID                    : S_TEXT/UTF8
    Codec ID/Info               : UTF-8 Plain Text
    Duration                    : 2 h 12 min
    Bit rate                    : 3 b/s
    Count of elements           : 113
    Stream size                 : 3.36 KiB (0%)
    Title                       : Forzados-SRT [CinemaniaHDD]
    Language                    : Spanish
    Default                     : Yes
    Forced                      : Yes

    Text #2
    ID                          : 5
    Format                      : UTF-8
    Codec ID                    : S_TEXT/UTF8
    Codec ID/Info               : UTF-8 Plain Text
    Duration                    : 2 h 12 min
    Bit rate                    : 51 b/s
    Count of elements           : 1648
    Stream size                 : 50.1 KiB (0%)
    Title                       : Español-SRT [CinemaniaHDD]
    Language                    : Spanish
    Default                     : No
    Forced                      : No

    Text #3
    ID                          : 6
    Format                      : UTF-8
    Codec ID                    : S_TEXT/UTF8
    Codec ID/Info               : UTF-8 Plain Text
    Duration                    : 2 h 1 min
    Bit rate                    : 57 b/s
    Count of elements           : 1519
    Stream size                 : 51.5 KiB (0%)
    Title                       : Ingles-SRT [CinemaniaHDD]
    Language                    : English
    Default                     : No
    Forced                      : No

    Menu
    00:00:00.000                : Studio Logos
    00:01:08.980                : Scene 2
    00:02:08.980                : Title Sequence
    00:02:24.980                : Scene 4
    00:03:38.980                : Scene 5
    00:04:21.980                : Scene 6
    00:05:29.980                : Scene 7
    00:06:06.980                : Scene 8
    00:08:15.980                : Scene 9
    00:08:21.980                : Scene 10
    00:09:14.980                : Scene 11
    00:09:52.980                : Scene 12
    00:10:59.980                : Scene 13
    00:13:01.980                : Scene 14
    00:14:53.980                : Scene 15
    00:16:43.980                : Scene 16
    00:16:59.980                : Scene 17
    00:17:50.980                : Scene 18
    00:18:53.980                : Scene 19
    00:19:31.980                : Scene 20
    00:20:37.980                : Scene 21
    00:23:05.980                : Scene 22
    00:25:39.980                : Scene 23
    00:27:07.980                : Scene 24
    00:29:41.980                : Scene 25
    00:30:41.980                : Scene 26
    00:33:58.980                : Scene 27
    00:38:27.980                : Scene 28
    00:39:45.980                : Scene 29
    00:40:34.980                : Scene 30
    00:42:40.980                : Scene 31
    00:43:13.980                : Scene 32
    00:44:09.980                : Scene 33
    00:52:37.980                : Scene 34
    00:53:16.980                : Scene 35
    00:55:13.980                : Scene 36
    00:56:11.980                : Scene 37
    00:57:44.980                : Scene 38
    01:03:43.980                : Scene 39
    01:04:56.980                : Scene 40
    01:06:35.980                : Scene 41
    01:12:28.980                : Scene 42
    01:15:06.980                : Scene 43
    01:15:53.980                : Scene 44
    01:17:39.980                : Scene 45
    01:19:33.980                : Scene 46
    01:20:13.980                : Scene 47
    01:20:54.980                : Scene 48
    01:25:38.980                : Scene 49
    01:28:01.980                : Scene 50
    01:30:29.980                : Scene 51
    01:36:05.980                : Scene 52
    01:38:21.980                : Scene 53
    01:39:39.980                : Scene 54
    01:40:29.980                : Scene 55
    01:42:41.980                : Scene 56
    01:43:22.980                : Scene 57
    01:43:35.980                : Scene 58
    01:46:02.980                : Scene 59
    01:46:41.980                : Scene 60
    01:50:50.980                : Scene 61
    01:54:06.980                : Scene 62
    01:55:39.980                : Scene 63
    01:57:43.980                : Scene 64
    02:05:30.980                : Acknowledgement
    02:06:22.980                : End Credits

  • Peso: 24.1 GiB

Sinopsis

Descargar Gran Turismo (2023) WEB-DL 4K UHD HDR Latino. Basada en una historia real, la película cuenta cómo cumplió su sueño un adolescente que jugaba a Gran Turismo, juego en el que ganó una serie de competiciones patrocinadas por Nissan, y que le sirvió de trampolín para acabar convirtiéndose en un piloto de carreras profesional.

Ficha técnica

Video trailer de la película

Enlaces de descarga

Rip de Bluray

Descargar Gran Turismo (2023) WEB-DL 4K UHD HDR Latino




Aportes de DPeliculasHDmega la pass es:dpeliculashdmega.org Aportes de CinemaniaHD la pass es:cinemaniahdd.com Aportes recientes:cinemaniahdd.net
Guardado en : 4K HDR , 4K UHD , Acción , Aventura , Drama

Películas relacionadas

descargar Gran Turismo (2023) WEB-DL 4K UHD HDR Latino WEBDL 1080p gratis, Gran Turismo (2023) WEB-DL 4K UHD HDR Latino WEBDL mega 1 link, Gran Turismo (2023) WEB-DL 4K UHD HDR Latino WEBDL pelicula completa, descargar Gran Turismo (2023) WEB-DL 4K UHD HDR Latino WEBDL gratis en mega.

Gran Turismo (2023) WEB-DL 4K UHD HDR Latino pelicula full hd, Gran Turismo (2023) WEB-DL 4K UHD HDR Latino mega latino, Gran Turismo (2023) WEB-DL 4K UHD HDR Latino 4k latino, Gran Turismo (2023) WEB-DL 4K UHD HDR Latino pelicula completa, Gran Turismo (2023) WEB-DL 4K UHD HDR Latino descargar gratis, descargar Gran Turismo (2023) WEB-DL 4K UHD HDR Latino pelicula latino, Gran Turismo (2023) WEB-DL 4K UHD HDR Latino 1 link mega, Gran Turismo (2023) WEB-DL 4K UHD HDR Latino 1 link google drive, Gran Turismo (2023) WEB-DL 4K UHD HDR Latino hd 1080p latino.
Comentarios 0