×

¿Problemas para descargar con Mozilla, EDGE? Deshabilita la opción "Abrir vinculos en una pestaña nueva" tal como lo muestra ésta imagen.

Gran Turismo (2023) REMUX 1080p Latino-CMHDD

119 vistas

Información de Gran Turismo (2023) REMUX 1080p Latino-CMHDD

Datos de la película

  • Calidad: Full 1080p
  • Audio: Español Latino AC3 5.1 BLURAY - Ingles DTS 5.1 BLURAY
  • Subtitulos: Español Latino PGS - Ingles PGS
  • Resolución: 1920x1080p
  • Formato: MKV
  • Codec: H.264
  • Encoder: CinefiloCool
  • Mediainfo: Clic para Mostrar Datos Ver
  • Gran.Turismo.2023.REMUX.1080p.Latino-CC@CMHDD.mkv
    Format                      : Matroska
    Format version              : Version 4
    File size                   : 26.1 GiB
    Duration                    : 2 h 14 min
    Overall bit rate mode       : Variable
    Overall bit rate            : 27.8 Mb/s
    Movie name                  : Gran Turismo (2023) CinemaniaHDD.Net
    Encoded date                : UTC 2023-11-03 02:39:00
    Writing application         : mkvmerge v56.1.0 ('My Friend') 64-bit
    Writing library             : libebml v1.4.2 + libmatroska v1.6.4
    Cover                       : Yes
    Attachments                 : CINEMANIAHD.png / cover.jpg

    Video
    ID                          : 1
    ID in the original source m : 4113 (0x1011)
    Format                      : AVC
    Format/Info                 : Advanced Video Codec
    Format profile              : High@L4.1
    Format settings             : CABAC / 2 Ref Frames
    Format settings, CABAC      : Yes
    Format settings, Reference  : 2 frames
    Format settings, GOP        : M=1, N=10
    Codec ID                    : V_MPEG4/ISO/AVC
    Duration                    : 2 h 14 min
    Bit rate mode               : Variable
    Bit rate                    : 24.9 Mb/s
    Width                       : 1 920 pixels
    Height                      : 1 080 pixels
    Display aspect ratio        : 16:9
    Frame rate mode             : Constant
    Frame rate                  : 23.976 (24000/1001) FPS
    Color space                 : YUV
    Chroma subsampling          : 4:2:0
    Bit depth                   : 8 bits
    Scan type                   : Progressive
    Bits/(Pixel*Frame)          : 0.500
    Stream size                 : 23.3 GiB (89%)
    Title                       : REMUX HD1080p [CinemaniaHDD]
    Default                     : Yes
    Forced                      : Yes
    Original source medium      : Blu-ray

    Audio #1
    ID                          : 2
    ID in the original source m : 4357 (0x1105)
    Format                      : AC-3
    Format/Info                 : Audio Coding 3
    Commercial name             : Dolby Digital
    Codec ID                    : A_AC3
    Duration                    : 2 h 14 min
    Bit rate mode               : Constant
    Bit rate                    : 640 kb/s
    Channel(s)                  : 6 channels
    Channel layout              : L R C LFE Ls Rs
    Sampling rate               : 48.0 kHz
    Frame rate                  : 31.250 FPS (1536 SPF)
    Compression mode            : Lossy
    Stream size                 : 615 MiB (2%)
    Title                       : Español Latino [CinemaniaHDD]
    Language                    : Spanish
    Service kind                : Complete Main
    Default                     : Yes
    Forced                      : Yes
    Original source medium      : Blu-ray

    Audio #2
    ID                          : 3
    ID in the original source m : 4352 (0x1100)
    Format                      : DTS XLL
    Format/Info                 : Digital Theater Systems
    Commercial name             : DTS-HD Master Audio
    Codec ID                    : A_DTS
    Duration                    : 2 h 14 min
    Bit rate mode               : Variable
    Bit rate                    : 2 265 kb/s
    Channel(s)                  : 6 channels
    Channel layout              : C L R Ls Rs LFE
    Sampling rate               : 48.0 kHz
    Frame rate                  : 93.750 FPS (512 SPF)
    Bit depth                   : 16 bits
    Compression mode            : Lossless
    Stream size                 : 2.12 GiB (8%)
    Title                       : Ingles [CinemaniaHDD]
    Language                    : English
    Default                     : No
    Forced                      : No
    Original source medium      : Blu-ray

    Text #1
    ID                          : 4
    Format                      : PGS
    Muxing mode                 : zlib
    Codec ID                    : S_HDMV/PGS
    Codec ID/Info               : Picture based subtitle format used on BDs/HD-DVDs
    Duration                    : 2 h 12 min
    Bit rate                    : 2 548 b/s
    Count of elements           : 228
    Stream size                 : 2.42 MiB (0%)
    Title                       : Forzados-PGS [CinemaniaHDD]
    Language                    : Spanish
    Default                     : No
    Forced                      : No

    Text #2
    ID                          : 5
    ID in the original source m : 4614 (0x1206)
    Format                      : PGS
    Muxing mode                 : zlib
    Codec ID                    : S_HDMV/PGS
    Codec ID/Info               : Picture based subtitle format used on BDs/HD-DVDs
    Duration                    : 2 h 12 min
    Bit rate                    : 30.3 kb/s
    Count of elements           : 3301
    Stream size                 : 28.7 MiB (0%)
    Title                       : Español-PGS [CinemaniaHDD]
    Language                    : Spanish
    Default                     : No
    Forced                      : No
    Original source medium      : Blu-ray

    Text #3
    ID                          : 6
    ID in the original source m : 4609 (0x1201)
    Format                      : PGS
    Muxing mode                 : zlib
    Codec ID                    : S_HDMV/PGS
    Codec ID/Info               : Picture based subtitle format used on BDs/HD-DVDs
    Duration                    : 2 h 1 min
    Bit rate                    : 34.1 kb/s
    Count of elements           : 3044
    Stream size                 : 29.7 MiB (0%)
    Title                       : Ingles [CinemaniaHDD]
    Language                    : English
    Default                     : No
    Forced                      : No
    Original source medium      : Blu-ray

    Text #4
    ID                          : 7
    Format                      : UTF-8
    Codec ID                    : S_TEXT/UTF8
    Codec ID/Info               : UTF-8 Plain Text
    Duration                    : 2 h 12 min
    Bit rate                    : 3 b/s
    Count of elements           : 113
    Stream size                 : 3.36 KiB (0%)
    Title                       : Forzados-SRT [CinemaniaHDD]
    Language                    : Spanish
    Default                     : Yes
    Forced                      : Yes

    Text #5
    ID                          : 8
    Format                      : UTF-8
    Codec ID                    : S_TEXT/UTF8
    Codec ID/Info               : UTF-8 Plain Text
    Duration                    : 2 h 12 min
    Bit rate                    : 51 b/s
    Count of elements           : 1648
    Stream size                 : 49.7 KiB (0%)
    Title                       : Español-SRT [CinemaniaHDD]
    Language                    : Spanish
    Default                     : No
    Forced                      : No

    Menu
    00:00:00.000                : Chapter 01
    00:08:19.624                : Chapter 02
    00:16:59.685                : Chapter 03
    00:25:13.136                : Chapter 04
    00:33:33.011                : Chapter 05
    00:40:34.473                : Chapter 06
    00:48:39.708                : Chapter 07
    00:55:59.522                : Chapter 08
    01:01:01.741                : Chapter 09
    01:07:36.052                : Chapter 10
    01:16:21.493                : Chapter 11
    01:25:38.091                : Chapter 12
    01:30:49.694                : Chapter 13
    01:39:40.474                : Chapter 14
    01:49:35.777                : Chapter 15
    01:58:49.914                : Chapter 16

  • Peso: 26.1 GiB

Sinopsis

Descargar Gran Turismo (2023) REMUX 1080p Latino-CMHDD. Un jugador adolescente de Gran Turismo gana una serie de competencias de Nissan y luego se convierte en un verdadero piloto de carreras profesional.

Ficha técnica

Video trailer de la película

Enlaces de descarga

Rip de Bluray

Descargar Gran Turismo (2023) REMUX 1080p Latino-CMHDD




Aportes de DPeliculasHDmega la pass es:dpeliculashdmega.org Aportes de CinemaniaHD la pass es:cinemaniahdd.com Aportes recientes:cinemaniahdd.net
Guardado en : Acción , Aventura , Drama , Remux

Películas relacionadas

descargar Gran Turismo (2023) REMUX 1080p Latino-CMHDD Full 1080p 1080p gratis, Gran Turismo (2023) REMUX 1080p Latino-CMHDD Full 1080p mega 1 link, Gran Turismo (2023) REMUX 1080p Latino-CMHDD Full 1080p pelicula completa, descargar Gran Turismo (2023) REMUX 1080p Latino-CMHDD Full 1080p gratis en mega.

Gran Turismo (2023) REMUX 1080p Latino-CMHDD pelicula full hd, Gran Turismo (2023) REMUX 1080p Latino-CMHDD mega latino, Gran Turismo (2023) REMUX 1080p Latino-CMHDD 4k latino, Gran Turismo (2023) REMUX 1080p Latino-CMHDD pelicula completa, Gran Turismo (2023) REMUX 1080p Latino-CMHDD descargar gratis, descargar Gran Turismo (2023) REMUX 1080p Latino-CMHDD pelicula latino, Gran Turismo (2023) REMUX 1080p Latino-CMHDD 1 link mega, Gran Turismo (2023) REMUX 1080p Latino-CMHDD 1 link google drive, Gran Turismo (2023) REMUX 1080p Latino-CMHDD hd 1080p latino.
Comentarios 0