×

¿Problemas para descargar con Mozilla, EDGE? Deshabilita la opción "Abrir vinculos en una pestaña nueva" tal como lo muestra ésta imagen.

Grace and Frankie (2019) Temporada 5 NF 1080p Latino

1.138 vistas

Información de Grace and Frankie (2019) Temporada 5 NF 1080p Latino

Datos de la película

  • Calidad: WEBDL
  • Audio: Español Latino AC3 5.1 Netflix - Ingles AC3 5.1 Netflix
  • Subtitulos: Español Latino SRT - Ingles SRT
  • Resolución: 1920x1080
  • Formato: MKV
  • Codec: H.264
  • Encoder: cinemaniahd
  • Mediainfo: Clic para Mostrar Datos Ver
  • Grace and Frankie S05E01 (2019) NF 1080p Latino.mkv
    Format                      : Matroska
    Format version              : Version 4
    File size                   : 932 MiB
    Duration                    : 28 min 42 s
    Overall bit rate mode       : Variable
    Overall bit rate            : 4 537 kb/s
    Movie name                  : CinemaniaHDD.net
    Encoded date                : UTC 2019-01-18 17:10:17
    Writing application         : mkvmerge v30.1.0 ('Forever And More') 64-bit
    Writing library             : libebml v1.3.6 + libmatroska v1.4.9

    Video
    ID                          : 1
    Format                      : AVC
    Format/Info                 : Advanced Video Codec
    Format profile              : Main@L4
    Format settings             : CABAC / 3 Ref Frames
    Format settings, CABAC      : Yes
    Format settings, ReFrames   : 3 frames
    Codec ID                    : V_MPEG4/ISO/AVC
    Duration                    : 28 min 42 s
    Bit rate mode               : Variable
    Bit rate                    : 3 830 kb/s
    Maximum bit rate            : 5 745 kb/s
    Width                       : 1 920 pixels
    Height                      : 1 080 pixels
    Display aspect ratio        : 16:9
    Frame rate mode             : Constant
    Frame rate                  : 23.976 (24000/1001) FPS
    Color space                 : YUV
    Chroma subsampling          : 4:2:0
    Bit depth                   : 8 bits
    Scan type                   : Progressive
    Bits/(Pixel*Frame)          : 0.077
    Stream size                 : 773 MiB (83%)
    Title                       : cinemaniahdd
    Writing library             : x264 core 148 r2715 7e75228
    Encoding settings           : cabac=1 / ref=3 / deblock=1:0:0 / analyse=0x1:0x111 / me=umh / subme=10 / psy=1 / psy_rd=1.00:0.00 / mixed_ref=1 / me_range=24 / chroma_me=1 / trellis=2 / 8x8dct=0 / cqm=0 / deadzone=21,11 / fast_pskip=1 / chroma_qp_offset=-2 / threads=8 / lookahead_threads=1 / sliced_threads=0 / nr=0 / decimate=1 / interlaced=0 / bluray_compat=0 / stitchable=1 / constrained_intra=0 / bframes=2 / b_pyramid=0 / b_adapt=2 / b_bias=0 / direct=3 / weightb=1 / open_gop=0 / weightp=2 / keyint=48 / keyint_min=25 / scenecut=0 / intra_refresh=0 / rc_lookahead=48 / rc=2pass / mbtree=1 / bitrate=3830 / ratetol=1.0 / qcomp=0.50 / qpmin=6 / qpmax=51 / qpstep=4 / cplxblur=20.0 / qblur=0.5 / vbv_maxrate=5745 / vbv_bufsize=7660 / nal_hrd=vbr / filler=0 / ip_ratio=1.40 / aq=1:1.00
    Default                     : Yes
    Forced                      : No

    Audio #1
    ID                          : 2
    Format                      : AC-3
    Format/Info                 : Audio Coding 3
    Commercial name             : Dolby Digital
    Codec ID                    : A_AC3
    Duration                    : 28 min 42 s
    Bit rate mode               : Constant
    Bit rate                    : 384 kb/s
    Channel(s)                  : 6 channels
    Channel layout              : L R C LFE Ls Rs
    Sampling rate               : 48.0 kHz
    Frame rate                  : 31.250 FPS (1536 SPF)
    Bit depth                   : 16 bits
    Compression mode            : Lossy
    Stream size                 : 78.8 MiB (8%)
    Title                       : Español latino [cinemaniahdd]
    Language                    : Spanish
    Service kind                : Complete Main
    Default                     : Yes
    Forced                      : No

    Audio #2
    ID                          : 3
    Format                      : AC-3
    Format/Info                 : Audio Coding 3
    Commercial name             : Dolby Digital
    Codec ID                    : A_AC3
    Duration                    : 28 min 42 s
    Bit rate mode               : Constant
    Bit rate                    : 384 kb/s
    Channel(s)                  : 6 channels
    Channel layout              : L R C LFE Ls Rs
    Sampling rate               : 48.0 kHz
    Frame rate                  : 31.250 FPS (1536 SPF)
    Bit depth                   : 16 bits
    Compression mode            : Lossy
    Stream size                 : 78.8 MiB (8%)
    Title                       : Inglés [cinemaniahdd]
    Language                    : English
    Service kind                : Complete Main
    Default                     : No
    Forced                      : No

    Text #1
    ID                          : 4
    Format                      : UTF-8
    Codec ID                    : S_TEXT/UTF8
    Codec ID/Info               : UTF-8 Plain Text
    Duration                    : 28 min 6 s
    Bit rate                    : 93 b/s
    Count of elements           : 583
    Stream size                 : 19.3 KiB (0%)
    Title                       : English
    Language                    : English
    Default                     : No
    Forced                      : No

    Text #2
    ID                          : 5
    Format                      : UTF-8
    Codec ID                    : S_TEXT/UTF8
    Codec ID/Info               : UTF-8 Plain Text
    Duration                    : 27 min 23 s
    Bit rate                    : 75 b/s
    Count of elements           : 496
    Stream size                 : 15.2 KiB (0%)
    Title                       : Español latino [cinemaniahdd]
    Language                    : Spanish
    Default                     : No
    Forced                      : No

  • Peso: 1GB por capitulo

Sinopsis

Esta comedia se centra en dos antiguas rivales, Grace (Jane Fonda) y Frankie (Lily Tomlin), y el cambio drástico que tendrá lugar en sus vidas al enterarse que sus respectivos maridos se han enamorado el uno del otro y planean casarse. A partir de ese momento, la vida de estas dos mujeres de armas tomar se pondrá patas arriba y, para su sorpresa, descubrirán que pueden contar la una con la otra.

Ficha técnica

Video trailer de la película

Enlaces de descarga

Rip de Bluray

Descargar Grace and Frankie (2019) Temporada 5 NF 1080p Latino




Aportes de DPeliculasHDmega la pass es:dpeliculashdmega.org Aportes de CinemaniaHD la pass es:cinemaniahdd.com
Guardado en : Comedia , Drama , Series

Películas relacionadas

Grace and Frankie (2019) Temporada 5 NF 1080p Latino pelicula full hd, Grace and Frankie (2019) Temporada 5 NF 1080p Latino mega latino, Grace and Frankie (2019) Temporada 5 NF 1080p Latino 4k latino, Grace and Frankie (2019) Temporada 5 NF 1080p Latino pelicula completa, Grace and Frankie (2019) Temporada 5 NF 1080p Latino descargar gratis, descargar Grace and Frankie (2019) Temporada 5 NF 1080p Latino pelicula latino, Grace and Frankie (2019) Temporada 5 NF 1080p Latino 1 link mega, Grace and Frankie (2019) Temporada 5 NF 1080p Latino 1 link google drive, Grace and Frankie (2019) Temporada 5 NF 1080p Latino hd 1080p latino.
Comentarios 0