×

¿Problemas para descargar con Mozilla, EDGE? Deshabilita la opción "Abrir vinculos en una pestaña nueva" tal como lo muestra ésta imagen.

Good Omens (2023) Segunda Temporada AMZN WEB-DL 1080p Latino

258 vistas

Información de Good Omens (2023) Segunda Temporada AMZN WEB-DL 1080p Latino

Datos de la película

  • Calidad: 1080p
  • Audio: Español Latino AC3 5.1 WEB-DL - Ingles AC3 5.1 WEB-DL
  • Subtitulos: Español Latino SRT- FORZADOS SRT
  • Resolución: 1920x1080
  • Formato: MKV
  • Codec: H.264
  • Encoder: cinemaniahdd
  • Mediainfo: Clic para Mostrar Datos Ver
  • Good Omens T02E05 AMZN WEB-DL 1080p Latino [CNMNHDD].mkv
    Format                      : Matroska
    Format version              : Version 4
    File size                   : 2.55 GiB
    Duration                    : 45 min 21 s
    Overall bit rate            : 8 060 kb/s
    Movie name                  : Good Omens S02E05 - Chapter 5 The Ball [1080p]  - CinemaniaHDD.Net
    Encoded date                : UTC 2023-07-28 00:14:03
    Writing application         : mkvmerge v56.1.0 ('My Friend') 64-bit
    Writing library             : libebml v1.4.2 + libmatroska v1.6.4

    Video
    ID                          : 1
    Format                      : AVC
    Format/Info                 : Advanced Video Codec
    Format profile              : High@L4
    Format settings             : CABAC / 4 Ref Frames
    Format settings, CABAC      : Yes
    Format settings, Reference  : 4 frames
    Codec ID                    : V_MPEG4/ISO/AVC
    Duration                    : 45 min 21 s
    Bit rate mode               : Constant
    Bit rate                    : 6 137 kb/s
    Nominal bit rate            : 10 000 kb/s
    Width                       : 1 920 pixels
    Height                      : 800 pixels
    Display aspect ratio        : 2.40:1
    Frame rate mode             : Constant
    Frame rate                  : 25.000 FPS
    Color space                 : YUV
    Chroma subsampling          : 4:2:0
    Bit depth                   : 8 bits
    Scan type                   : Progressive
    Bits/(Pixel*Frame)          : 0.160
    Stream size                 : 1.94 GiB (76%)
    Title                       : CinemaniaHDD
    Default                     : Yes
    Forced                      : No
    Color range                 : Limited
    Color primaries             : BT.709
    Transfer characteristics    : BT.709
    Matrix coefficients         : BT.709

    Audio #1
    ID                          : 2
    Format                      : AC-3
    Format/Info                 : Audio Coding 3
    Commercial name             : Dolby Digital
    Codec ID                    : A_AC3
    Duration                    : 45 min 21 s
    Bit rate mode               : Constant
    Bit rate                    : 640 kb/s
    Channel(s)                  : 6 channels
    Channel layout              : L R C LFE Ls Rs
    Sampling rate               : 48.0 kHz
    Frame rate                  : 31.250 FPS (1536 SPF)
    Compression mode            : Lossy
    Stream size                 : 208 MiB (8%)
    Title                       : Español Latino [CinemaniaHDD]
    Language                    : Spanish
    Service kind                : Complete Main
    Default                     : Yes
    Forced                      : No

    Audio #2
    ID                          : 3
    Format                      : E-AC-3
    Format/Info                 : Enhanced AC-3
    Commercial name             : Dolby Digital Plus
    Codec ID                    : A_EAC3
    Duration                    : 45 min 21 s
    Bit rate mode               : Constant
    Bit rate                    : 640 kb/s
    Channel(s)                  : 6 channels
    Channel layout              : L R C LFE Ls Rs
    Sampling rate               : 48.0 kHz
    Frame rate                  : 31.250 FPS (1536 SPF)
    Compression mode            : Lossy
    Stream size                 : 208 MiB (8%)
    Title                       : Español latino / E-AC3 [CinemaniaHDD]
    Language                    : Spanish
    Service kind                : Complete Main
    Default                     : No
    Forced                      : No

    Audio #3
    ID                          : 4
    Format                      : E-AC-3
    Format/Info                 : Enhanced AC-3
    Commercial name             : Dolby Digital Plus
    Codec ID                    : A_EAC3
    Duration                    : 45 min 21 s
    Bit rate mode               : Constant
    Bit rate                    : 640 kb/s
    Channel(s)                  : 6 channels
    Channel layout              : L R C LFE Ls Rs
    Sampling rate               : 48.0 kHz
    Frame rate                  : 31.250 FPS (1536 SPF)
    Compression mode            : Lossy
    Stream size                 : 208 MiB (8%)
    Title                       : Inglés [CinemaniaHDD]
    Language                    : English
    Service kind                : Complete Main
    Default                     : No
    Forced                      : No

    Text #1
    ID                          : 5
    Format                      : UTF-8
    Codec ID                    : S_TEXT/UTF8
    Codec ID/Info               : UTF-8 Plain Text
    Duration                    : 17 min 2 s
    Bit rate                    : 3 b/s
    Count of elements           : 13
    Stream size                 : 414 Bytes (0%)
    Title                       : Forzados [CinemaniaHDD]
    Language                    : Spanish
    Default                     : Yes
    Forced                      : Yes

    Text #2
    ID                          : 6
    Format                      : UTF-8
    Codec ID                    : S_TEXT/UTF8
    Codec ID/Info               : UTF-8 Plain Text
    Duration                    : 42 min 9 s
    Bit rate                    : 61 b/s
    Count of elements           : 598
    Stream size                 : 19.1 KiB (0%)
    Title                       : Español Latino [CinemaniaHDD]
    Language                    : Spanish
    Default                     : No
    Forced                      : No

    Text #3
    ID                          : 7
    Format                      : UTF-8
    Codec ID                    : S_TEXT/UTF8
    Codec ID/Info               : UTF-8 Plain Text
    Duration                    : 40 min 35 s
    Bit rate                    : 75 b/s
    Count of elements           : 717
    Stream size                 : 22.6 KiB (0%)
    Title                       : Inglés [CinemaniaHDD]
    Language                    : English
    Default                     : No
    Forced                      : No

    Menu
    00:00:00.000                : 1. Prime Video
    00:00:05.000                : Scene 2
    00:02:46.000                : Scene 3
    00:02:57.000                : Scene 4
    00:03:46.000                : Scene 5
    00:05:11.000                : Scene 6
    00:05:25.000                : Scene 7
    00:07:09.000                : Scene 8
    00:08:06.000                : Scene 9
    00:08:32.000                : Scene 10
    00:10:16.000                : Scene 11
    00:10:57.000                : 12. Title Sequence
    00:12:31.000                : Scene 13
    00:14:00.000                : Scene 14
    00:17:58.000                : Scene 15
    00:19:34.000                : Scene 16
    00:22:03.000                : Scene 17
    00:24:28.000                : Scene 18
    00:25:17.000                : Scene 19
    00:28:30.000                : Scene 20
    00:38:38.000                : Scene 21
    00:40:39.000                : 22. End Credits

     

  • Peso: 2.55 GiB Aprox ---- 18 GiB in 6 Chapters.

Sinopsis

Un arcángel desnudo aparece en la puerta de la librería del ángel Aziraphale, sin recordar nada, por lo que las vidas de Aziraphale y el demonio Crowley se complican. El Cielo y el Infierno están desesperados por encontrar al fugitivo. Mientras Crowley y Aziraphale intentan arreglar un romance humano, las cosas se vuelven cada vez más inseguras para ellos, tanto en el pasado como en el presente.

Ficha técnica

Video trailer de la película

Enlaces de descarga

Rip de Bluray

Descargar Good Omens (2023) Segunda Temporada AMZN WEB-DL 1080p Latino




Aportes de DPeliculasHDmega la pass es:dpeliculashdmega.org Aportes de CinemaniaHD la pass es:cinemaniahdd.com Aportes recientes:cinemaniahdd.net
Guardado en : Comedia , Drama , Sci-Fi & Fantasy , Series

Películas relacionadas

descargar Good Omens (2023) Segunda Temporada AMZN WEB-DL 1080p Latino 1080p 1080p gratis, Good Omens (2023) Segunda Temporada AMZN WEB-DL 1080p Latino 1080p mega 1 link, Good Omens (2023) Segunda Temporada AMZN WEB-DL 1080p Latino 1080p serie completa, descargar Good Omens (2023) Segunda Temporada AMZN WEB-DL 1080p Latino 1080p gratis en mega.

Good Omens (2023) Segunda Temporada AMZN WEB-DL 1080p Latino pelicula full hd, Good Omens (2023) Segunda Temporada AMZN WEB-DL 1080p Latino mega latino, Good Omens (2023) Segunda Temporada AMZN WEB-DL 1080p Latino 4k latino, Good Omens (2023) Segunda Temporada AMZN WEB-DL 1080p Latino pelicula completa, Good Omens (2023) Segunda Temporada AMZN WEB-DL 1080p Latino descargar gratis, descargar Good Omens (2023) Segunda Temporada AMZN WEB-DL 1080p Latino pelicula latino, Good Omens (2023) Segunda Temporada AMZN WEB-DL 1080p Latino 1 link mega, Good Omens (2023) Segunda Temporada AMZN WEB-DL 1080p Latino 1 link google drive, Good Omens (2023) Segunda Temporada AMZN WEB-DL 1080p Latino hd 1080p latino.
Comentarios 0