×

¿Problemas para descargar con Mozilla, EDGE? Deshabilita la opción "Abrir vinculos en una pestaña nueva" tal como lo muestra ésta imagen.

Good Omens (2019) Primera Temporada AMZN WEB-DL 1080p Latino

2.526 vistas

Información de Good Omens (2019) Primera Temporada AMZN WEB-DL 1080p Latino

Datos de la película

  • Calidad: 1080p
  • Audio: Español Latino AC3 5.1 WEB-DL - Ingles AC3 5.1 WEB-DL
  • Subtitulos: Español Latino SRT- FORZADOS SRT
  • Resolución: 1920x1080
  • Formato: MKV
  • Codec: H.264
  • Encoder: cinemaniahdd
  • Mediainfo: Clic para Mostrar Datos Ver
  • Good Omens T01E01 AMZN WEB-DL 1080p Latino [CNMNHDD].mkv
    Format                      : Matroska
    Format version              : Version 4
    File size                   : 3.59 GiB
    Duration                    : 53 min 51 s
    Overall bit rate            : 9 542 kb/s
    Movie name                  : Good Omens S01E01 - In the Beginning [1080p]  - CinemaniaHDD.Net
    Encoded date                : UTC 2023-07-27 23:40:03
    Writing application         : mkvmerge v56.1.0 ('My Friend') 64-bit
    Writing library             : libebml v1.4.2 + libmatroska v1.6.4

    Video
    ID                          : 1
    Format                      : AVC
    Format/Info                 : Advanced Video Codec
    Format profile              : High@L4
    Format settings             : CABAC / 4 Ref Frames
    Format settings, CABAC      : Yes
    Format settings, Reference  : 4 frames
    Codec ID                    : V_MPEG4/ISO/AVC
    Duration                    : 53 min 51 s
    Bit rate mode               : Constant
    Bit rate                    : 7 619 kb/s
    Nominal bit rate            : 10 000 kb/s
    Width                       : 1 920 pixels
    Height                      : 1 080 pixels
    Display aspect ratio        : 16:9
    Frame rate mode             : Constant
    Frame rate                  : 25.000 FPS
    Color space                 : YUV
    Chroma subsampling          : 4:2:0
    Bit depth                   : 8 bits
    Scan type                   : Progressive
    Bits/(Pixel*Frame)          : 0.147
    Stream size                 : 2.87 GiB (80%)
    Title                       : CinemaniaHDD
    Default                     : Yes
    Forced                      : No
    Color range                 : Limited
    Color primaries             : BT.709
    Transfer characteristics    : BT.709
    Matrix coefficients         : BT.709

    Audio #1
    ID                          : 2
    Format                      : AC-3
    Format/Info                 : Audio Coding 3
    Commercial name             : Dolby Digital
    Codec ID                    : A_AC3
    Duration                    : 53 min 51 s
    Bit rate mode               : Constant
    Bit rate                    : 640 kb/s
    Channel(s)                  : 6 channels
    Channel layout              : L R C LFE Ls Rs
    Sampling rate               : 48.0 kHz
    Frame rate                  : 31.250 FPS (1536 SPF)
    Compression mode            : Lossy
    Stream size                 : 247 MiB (7%)
    Title                       : Español Latino [CinemaniaHDD]
    Language                    : Spanish
    Service kind                : Complete Main
    Default                     : Yes
    Forced                      : No

    Audio #2
    ID                          : 3
    Format                      : E-AC-3
    Format/Info                 : Enhanced AC-3
    Commercial name             : Dolby Digital Plus
    Codec ID                    : A_EAC3
    Duration                    : 53 min 51 s
    Bit rate mode               : Constant
    Bit rate                    : 640 kb/s
    Channel(s)                  : 6 channels
    Channel layout              : L R C LFE Ls Rs
    Sampling rate               : 48.0 kHz
    Frame rate                  : 31.250 FPS (1536 SPF)
    Compression mode            : Lossy
    Stream size                 : 247 MiB (7%)
    Title                       : Español latino / E-AC3 [CinemaniaHDD]
    Language                    : Spanish
    Service kind                : Complete Main
    Default                     : No
    Forced                      : No

    Audio #3
    ID                          : 4
    Format                      : E-AC-3
    Format/Info                 : Enhanced AC-3
    Commercial name             : Dolby Digital Plus
    Codec ID                    : A_EAC3
    Duration                    : 53 min 51 s
    Bit rate mode               : Constant
    Bit rate                    : 640 kb/s
    Channel(s)                  : 6 channels
    Channel layout              : L R C LFE Ls Rs
    Sampling rate               : 48.0 kHz
    Frame rate                  : 31.250 FPS (1536 SPF)
    Compression mode            : Lossy
    Stream size                 : 247 MiB (7%)
    Title                       : Inglés [CinemaniaHDD]
    Language                    : English
    Service kind                : Complete Main
    Default                     : No
    Forced                      : No

    Text #1
    ID                          : 5
    Format                      : UTF-8
    Codec ID                    : S_TEXT/UTF8
    Codec ID/Info               : UTF-8 Plain Text
    Duration                    : 44 min 21 s
    Bit rate                    : 1 b/s
    Count of elements           : 16
    Stream size                 : 410 Bytes (0%)
    Title                       : Forzados [CinemaniaHDD]
    Language                    : Spanish
    Default                     : Yes
    Forced                      : Yes

    Text #2
    ID                          : 6
    Format                      : UTF-8
    Codec ID                    : S_TEXT/UTF8
    Codec ID/Info               : UTF-8 Plain Text
    Duration                    : 49 min 2 s
    Bit rate                    : 81 b/s
    Count of elements           : 833
    Stream size                 : 29.2 KiB (0%)
    Title                       : Español Latino [CinemaniaHDD]
    Language                    : Spanish
    Default                     : No
    Forced                      : No

    Text #3
    ID                          : 7
    Format                      : UTF-8
    Codec ID                    : S_TEXT/UTF8
    Codec ID/Info               : UTF-8 Plain Text
    Duration                    : 49 min 6 s
    Bit rate                    : 87 b/s
    Count of elements           : 1035
    Stream size                 : 31.6 KiB (0%)
    Title                       : Inglés [CinemaniaHDD]
    Language                    : English
    Default                     : No
    Forced                      : No

    Menu
    00:00:00.000                : 1. Amazon Original
    00:00:05.000                : 2. It starts as it will end
    00:06:04.000                : 3. Opening Credits
    00:07:33.000                : 4. The forces of evil are everywhere
    00:12:02.000                : 5. Times are changing
    00:14:25.000                : 6. The birth of the anti-Christ
    00:25:59.000                : 7. Hereditary enemies or friends
    00:35:05.000                : 8. Balancing good and evil
    00:39:31.000                : 9. An 11th birthday to remember
    00:48:02.000                : 10. Welcome to the end times
    00:49:10.000                : 11. End Credits

     

  • Peso: 3.59 GiB Aprox ---- 23 GiB in 6 Chapters.

Sinopsis

En 2019, el mundo está al borde de un apocalipsis mientras la humanidad se prepara para un juicio final. Pero suceden locuras: Azirafel, un ángel un tanto quisquilloso, y Crowley, un demonio no están entusiasmados con el fin del mundo, y parece que no pueden encontrar al Anticristo.

Ficha técnica

Video trailer de la película

Enlaces de descarga

Rip de Bluray

Descargar Good Omens (2019) Primera Temporada AMZN WEB-DL 1080p Latino




Aportes de DPeliculasHDmega la pass es:dpeliculashdmega.org Aportes de CinemaniaHD la pass es:cinemaniahdd.com Aportes recientes:cinemaniahdd.net
Guardado en : Comedia , Drama , Series

Películas relacionadas

descargar Good Omens (2019) Primera Temporada AMZN WEB-DL 1080p Latino 1080p 1080p gratis, Good Omens (2019) Primera Temporada AMZN WEB-DL 1080p Latino 1080p mega 1 link, Good Omens (2019) Primera Temporada AMZN WEB-DL 1080p Latino 1080p serie completa, descargar Good Omens (2019) Primera Temporada AMZN WEB-DL 1080p Latino 1080p gratis en mega.

Good Omens (2019) Primera Temporada AMZN WEB-DL 1080p Latino pelicula full hd, Good Omens (2019) Primera Temporada AMZN WEB-DL 1080p Latino mega latino, Good Omens (2019) Primera Temporada AMZN WEB-DL 1080p Latino 4k latino, Good Omens (2019) Primera Temporada AMZN WEB-DL 1080p Latino pelicula completa, Good Omens (2019) Primera Temporada AMZN WEB-DL 1080p Latino descargar gratis, descargar Good Omens (2019) Primera Temporada AMZN WEB-DL 1080p Latino pelicula latino, Good Omens (2019) Primera Temporada AMZN WEB-DL 1080p Latino 1 link mega, Good Omens (2019) Primera Temporada AMZN WEB-DL 1080p Latino 1 link google drive, Good Omens (2019) Primera Temporada AMZN WEB-DL 1080p Latino hd 1080p latino.
Comentarios 0