Good Kids (2016) Full 1080p Latino

2.706 vistas
1 estrella2 estrellas3 estrellas4 estrellas5 estrellas (1 votos, promedio: 5,00 de 5)
Cargando…

Información de Good Kids (2016) Full 1080p Latino

Datos de la película

  • Calidad: Full 1080p
  • Audio: Español Latino AC3 5.1 DVD - Ingles DTS 5.1 BLURAY
  • Subtitulos: Español Latino PGS - Ingles PGS
  • Resolución: 1920X1080p
  • Formato: MKV
  • Codec: H.264
  • Encoder: Dracarys
  • Mediainfo: Clic para Mostrar Datos Ver
  • Format                                   : Matroska
    Format version                           : Version 4 / Version 2
    File size                                : 3.66 GiB
    Duration                                 : 1 h 29 min
    Overall bit rate                         : 5 858 kb/s
    Movie name                               : CinemaniaHDD.com
    Encoded date                             : UTC 2018-01-21 05:09:15 / UTC 2018-01-20T21:51:06Z
    Writing application                      : mkvmerge v15.0.0 ('Duel with the Devil') 64-bit
    Writing library                          : libebml v1.3.5 + libmatroska v1.4.5 / Lavf57.7.2

    Video
    ID                                       : 1
    Format                                   : AVC
    Format/Info                              : Advanced Video Codec
    Format profile                           : High@L4.1
    Format settings                          : CABAC / 4 Ref Frames
    Format settings, CABAC                   : Yes
    Format settings, RefFrames               : 4 frames
    Codec ID                                 : V_MPEG4/ISO/AVC
    Duration                                 : 1 h 29 min
    Bit rate                                 : 3 784 kb/s
    Width                                    : 1 920 pixels
    Height                                   : 1 080 pixels
    Display aspect ratio                     : 16:9
    Frame rate mode                          : Constant
    Frame rate                               : 23.976 (24000/1001) FPS
    Color space                              : YUV
    Chroma subsampling                       : 4:2:0
    Bit depth                                : 8 bits
    Scan type                                : Progressive
    Bits/(Pixel*Frame)                       : 0.076
    Stream size                              : 2.37 GiB (65%)
    Title                                    : Good Kids (2016) Full 1080p Latino
    Writing library                          : x264 core 148 r2708 86b7198
    Encoding settings                        : cabac=1 / ref=4 / deblock=1:0:0 / analyse=0x3:0x133 / me=esa / subme=10 / psy=1 / psy_rd=1.00:0.00 / mixed_ref=1 / me_range=24 / chroma_me=1 / trellis=2 / 8x8dct=1 / cqm=0 / deadzone=21,11 / fast_pskip=1 / chroma_qp_offset=-2 / threads=34 / lookahead_threads=5 / sliced_threads=0 / nr=0 / decimate=1 / interlaced=0 / bluray_compat=0 / constrained_intra=0 / bframes=8 / b_pyramid=2 / b_adapt=2 / b_bias=0 / direct=3 / weightb=1 / open_gop=0 / weightp=2 / keyint=240 / keyint_min=24 / scenecut=40 / intra_refresh=0 / rc_lookahead=60 / rc=crf / mbtree=1 / crf=20.0 / qcomp=0.60 / qpmin=0 / qpmax=69 / qpstep=4 / vbv_maxrate=62500 / vbv_bufsize=78125 / crf_max=0.0 / nal_hrd=none / filler=0 / ip_ratio=1.40 / aq=1:1.00
    Language                                 : English
    Default                                  : Yes
    Forced                                   : No
    Color range                              : Limited
    Color primaries                          : BT.709
    Transfer characteristics                 : BT.709
    Matrix coefficients                      : BT.709
    Statistics Tags Issue                    : mkvmerge v15.0.0 ('Duel with the Devil') 64-bit 2018-01-21 05:09:15 / mkvmerge v15.0.0 ('Duel with the Devil') 64-bit 2018-01-21 05:09:15 / UTC 2018-01-20T21:51:06Z
    FromStats_BitRate                        : 3848992
    FromStats_Duration                       : 01:29:28.488000000
    FromStats_FrameCount                     : 128715
    FromStats_StreamSize                     : 2582908887

    Audio #1
    ID                                       : 2
    Format                                   : AC-3
    Format/Info                              : Audio Coding 3
    Format settings, Endianness              : Big
    Codec ID                                 : A_AC3
    Duration                                 : 1 h 29 min
    Bit rate mode                            : Constant
    Bit rate                                 : 448 kb/s
    Channel(s)                               : 6 channels
    Channel positions                        : Front: L C R, Side: L R, LFE
    Sampling rate                            : 48.0 kHz
    Frame rate                               : 31.250 FPS (1536 SPF)
    Bit depth                                : 16 bits
    Compression mode                         : Lossy
    Stream size                              : 287 MiB (8%)
    Language                                 : Spanish
    Service kind                             : Complete Main
    Default                                  : Yes
    Forced                                   : No
    Statistics Tags Issue                    : mkvmerge v15.0.0 ('Duel with the Devil') 64-bit 2018-01-21 05:09:15 / mkvmerge v15.0.0 ('Duel with the Devil') 64-bit 2018-01-21 05:09:15 / UTC 2018-01-20T21:51:06Z
    FromStats_BitRate                        : 448000
    FromStats_Duration                       : 01:29:28.640000000
    FromStats_FrameCount                     : 167770
    FromStats_StreamSize                     : 300643840

    Audio #2
    ID                                       : 3
    Format                                   : DTS
    Format/Info                              : Digital Theater Systems
    Mode                                     : 16
    Format settings, Endianness              : Big
    Codec ID                                 : A_DTS
    Duration                                 : 1 h 29 min
    Bit rate mode                            : Constant
    Bit rate                                 : 1 509 kb/s
    Channel(s)                               : 6 channels
    Channel positions                        : Front: L C R, Side: L R, LFE
    Sampling rate                            : 48.0 kHz
    Frame rate                               : 93.750 FPS (512 SPF)
    Bit depth                                : 24 bits
    Compression mode                         : Lossy
    Stream size                              : 966 MiB (26%)
    Language                                 : English
    Default                                  : No
    Forced                                   : No
    Statistics Tags Issue                    : mkvmerge v15.0.0 ('Duel with the Devil') 64-bit 2018-01-21 05:09:15 / mkvmerge v15.0.0 ('Duel with the Devil') 64-bit 2018-01-21 05:09:15 / UTC 2018-01-20T21:51:06Z
    FromStats_BitRate                        : 1508999
    FromStats_Duration                       : 01:29:27.435000000
    FromStats_FrameCount                     : 503197
    FromStats_StreamSize                     : 1012432364

    Text #1
    ID                                       : 4
    Format                                   : PGS
    Muxing mode                              : zlib
    Codec ID                                 : S_HDMV/PGS
    Codec ID/Info                            : Picture based subtitle format used on BDs/HD-DVDs
    Language                                 : Spanish
    Default                                  : No
    Forced                                   : No
    Statistics Tags Issue                    : mkvmerge v15.0.0 ('Duel with the Devil') 64-bit 2018-01-21 05:09:15 / mkvmerge v15.0.0 ('Duel with the Devil') 64-bit 2018-01-21 05:09:15 / UTC 2018-01-20T21:51:06Z
    FromStats_BitRate                        : 56508
    FromStats_Duration                       : 01:25:02.728000000
    FromStats_FrameCount                     : 2514
    FromStats_StreamSize                     : 36043744

    Text #2
    ID                                       : 5
    Format                                   : PGS
    Muxing mode                              : zlib
    Codec ID                                 : S_HDMV/PGS
    Codec ID/Info                            : Picture based subtitle format used on BDs/HD-DVDs
    Language                                 : English
    Default                                  : No
    Forced                                   : No
    Statistics Tags Issue                    : mkvmerge v15.0.0 ('Duel with the Devil') 64-bit 2018-01-21 05:09:15 / mkvmerge v15.0.0 ('Duel with the Devil') 64-bit 2018-01-21 05:09:15 / UTC 2018-01-20T21:51:06Z
    FromStats_BitRate                        : 61339
    FromStats_Duration                       : 01:23:17.289000000
    FromStats_FrameCount                     : 2526
    FromStats_StreamSize                     : 38316345

    Menu
    00:00:00.000                             : :00:00:00.000
    00:11:35.528                             : :00:11:35.528
    00:23:42.212                             : :00:23:42.212
    00:34:07.295                             : :00:34:07.295
    00:46:11.560                             : :00:46:11.560
    00:57:06.298                             : :00:57:06.298
    01:08:26.185                             : :01:08:26.185
    01:19:32.559                             : :01:19:32.559

     

  • Peso: 3.66 GiB

Sinopsis

Cuatro jóvenes estudiantes de instituto tratan de definir su futuro tras graduarse. Los cuatro amigos se dan cuenta de que, además, todavía no han tenido algunas experiencias vitales que sí han probado otros chicos de su edad. Cansados de su actitud de niños buenos, deciden hacer un pacto, al que llamarán “el verano del sí”, y reinventarse antes de ir a la universidad

Ficha técnica

  • Titulo original: Good Kids
  • Fecha de lanzamiento: 21-10-2016 (United States of America)
  • Director: Chris McCoy
  • Género: Comedia, FULL 1080p Plateadas
  • Puntuación: 5.0 1 votos
  • Duración:
    1 h 29 min

Video trailer de la película

Enlaces de descarga

Rip de Bluray

Descargar Good Kids (2016) Full 1080p Latino




Aportes de DPeliculasHDmega la pass es:dpeliculashdmega.org Aportes de CinemaniaHD la pass es:cinemaniahdd.com
Guardado en : Comedia , FULL 1080p Plateadas

Películas relacionadas

  • Mision: Imposible 2 (2000) Full 1080p Latino

    2000
    Mision: Imposible 2 (2000) Full 1080p Latino

    3.0 2h 3m 2000

    Descargar Mision: Imposible 2 (2000) Full 1080p Latino, Mega, Google Drive. El agente especial Ethan...

    Director: William H. Burton Jr.

    Género: Acción

    Actores: William Mapother

  • Mision: Imposible (1996) Full 1080p Latino

    1996
    Mision: Imposible (1996) Full 1080p Latino

    3.7 1h 50m 1996

    Mission: Impossible (1996) Full 1080p Latino, Mega, Google Drive. Ethan Hunt es un superespía capaz...

    Director: Nick Moore

    Género: Acción

    Actores: Ving Rhames

  • Los increíbles 2 (2018) Full 1080p Latino

    2018
    Los increíbles 2 (2018) Full 1080p Latino

    4.4 1h 58m 2018

    Helen tiene que liderar una campaña para que los superhéroes regresen, mientras Bob vive su vida "normal"...

    Director: Seong-Young Kim

    Género: Acción

    Actores: Usher

  • La balada de Buster Scruggs (2018) NF 1080p Latino

    2018
    La balada de Buster Scruggs (2018) NF 1080p Latino

    0.0 2h 12m 2018

    Los siempre singulares Joel y Ethan Cohen escriben y dirigen esta antología de seis historias del Salvaje...

    Director: Joel Coen

    Género: Comedia

    Actores: Zoe Kazan

  • Cambio de princesa (2018) NF 1080p Latino

    2018
    Cambio de princesa (2018) NF 1080p Latino

    0.0 1h 41m 2018

    Una repostera de Chicago y una futura princesa descubren que parecen gemelas, así que idean un plan...

    Director: Mike Rohl

    Género: Comedia

    Actores: Vanessa Hudgens

Comentarios 0