×

¿Problemas para descargar con Mozilla, EDGE? Deshabilita la opción "Abrir vinculos en una pestaña nueva" tal como lo muestra ésta imagen.

Good Boys (2019) PLACEBO1080p Latino

1.216 vistas

Información de Good Boys (2019) PLACEBO1080p Latino

Datos de la película

  • Calidad: Full 1080p
  • Audio: Español Latino DTS 5.1 BLURAY - Ingles DTS-HD 5.1 BLURAY
  • Subtitulos: Español Latino PGS - Ingles PGS
  • Resolución: 1920x1080
  • Formato: MKV
  • Codec: H.264
  • Encoder: cinemaniahdd
  • Mediainfo: Clic para Mostrar Datos Ver
  • Good Boys (2019) PLACEBO 1080p Latino.mkv
    Format                      : Matroska
    Format version              : Version 4
    File size                   : 4.88 GiB
    Duration                    : 1 h 29 min
    Overall bit rate mode       : Variable
    Overall bit rate            : 7 801 kb/s
    Movie name                  : Good Boys (2019) - Cinemania HDD.Net
    Encoded date                : UTC 2019-11-05 04:29:23
    Writing application         : mkvmerge v38.0.0 ('The Silent Type') 64-bit
    Writing library             : libebml v1.3.9 + libmatroska v1.5.2

    Video
    ID                          : 1
    Format                      : AVC
    Format/Info                 : Advanced Video Codec
    Format profile              : High@L4.1
    Format settings             : CABAC / 4 Ref Frames
    Format settings, CABAC      : Yes
    Format settings, ReFrames   : 4 frames
    Codec ID                    : V_MPEG4/ISO/AVC
    Duration                    : 1 h 29 min
    Bit rate                    : 3 543 kb/s
    Width                       : 1 920 pixels
    Height                      : 1 080 pixels
    Display aspect ratio        : 16:9
    Frame rate mode             : Constant
    Frame rate                  : 23.976 (24000/1001) FPS
    Color space                 : YUV
    Chroma subsampling          : 4:2:0
    Bit depth                   : 8 bits
    Scan type                   : Progressive
    Bits/(Pixel*Frame)          : 0.071
    Stream size                 : 2.22 GiB (45%)
    Title                       : CinemaniaHDD
    Writing library             : x264 core 157 r2935 545de2f
    Encoding settings           : cabac=1 / ref=4 / deblock=1:0:0 / analyse=0x3:0x133 / me=tesa / subme=11 / psy=1 / psy_rd=1.00:0.00 / mixed_ref=1 / me_range=24 / chroma_me=1 / trellis=2 / 8x8dct=1 / cqm=0 / deadzone=21,11 / fast_pskip=0 / chroma_qp_offset=-2 / threads=34 / lookahead_threads=8 / sliced_threads=0 / nr=0 / decimate=1 / interlaced=0 / bluray_compat=0 / constrained_intra=0 / bframes=16 / b_pyramid=2 / b_adapt=2 / b_bias=0 / direct=3 / weightb=1 / open_gop=0 / weightp=2 / keyint=240 / keyint_min=24 / scenecut=40 / intra_refresh=0 / rc_lookahead=60 / rc=crf / mbtree=1 / crf=20.0 / qcomp=0.60 / qpmin=0 / qpmax=69 / qpstep=4 / vbv_maxrate=62500 / vbv_bufsize=78125 / crf_max=0.0 / nal_hrd=none / filler=0 / ip_ratio=1.40 / aq=1:1.00
    Default                     : Yes
    Forced                      : No
    Color range                 : Limited
    Color primaries             : BT.709
    Transfer characteristics    : BT.709
    Matrix coefficients         : BT.709

    Audio #1
    ID                          : 2
    Format                      : DTS
    Format/Info                 : Digital Theater Systems
    Codec ID                    : A_DTS
    Duration                    : 1 h 29 min
    Bit rate mode               : Constant
    Bit rate                    : 768 kb/s
    Channel(s)                  : 6 channels
    Channel layout              : C L R Ls Rs LFE
    Sampling rate               : 48.0 kHz
    Frame rate                  : 93.750 FPS (512 SPF)
    Bit depth                   : 24 bits
    Compression mode            : Lossy
    Stream size                 : 492 MiB (10%)
    Title                       : Español latino [CinemaniaHDD]
    Language                    : Spanish
    Default                     : Yes
    Forced                      : No

    Audio #2
    ID                          : 3
    Format                      : DTS XLL
    Format/Info                 : Digital Theater Systems
    Commercial name             : DTS-HD Master Audio
    Codec ID                    : A_DTS
    Duration                    : 1 h 29 min
    Bit rate mode               : Variable
    Bit rate                    : 3 425 kb/s
    Channel(s)                  : 6 channels
    Channel layout              : C L R Ls Rs LFE
    Sampling rate               : 48.0 kHz
    Frame rate                  : 93.750 FPS (512 SPF)
    Bit depth                   : 24 bits
    Compression mode            : Lossless
    Delay relative to video     : -5 ms
    Stream size                 : 2.14 GiB (44%)
    Title                       : Inglés [CinemaniaHDD]
    Language                    : English
    Default                     : No
    Forced                      : No

    Text #1
    ID                          : 4
    Format                      : UTF-8
    Codec ID                    : S_TEXT/UTF8
    Codec ID/Info               : UTF-8 Plain Text
    Duration                    : 1 h 22 min
    Bit rate                    : 0 b/s
    Count of elements           : 19
    Stream size                 : 335 Bytes (0%)
    Title                       : Forzados [CinemaniaHDD]
    Language                    : Spanish
    Default                     : Yes
    Forced                      : Yes

    Text #2
    ID                          : 5
    Format                      : PGS
    Muxing mode                 : zlib
    Codec ID                    : S_HDMV/PGS
    Codec ID/Info               : Picture based subtitle format used on BDs/HD-DVDs
    Duration                    : 1 h 28 min
    Bit rate                    : 52.2 kb/s
    Count of elements           : 2906
    Stream size                 : 33.0 MiB (1%)
    Title                       : Español latino [CinemaniaHDD]
    Language                    : Spanish
    Default                     : No
    Forced                      : No

    Text #3
    ID                          : 6
    Format                      : PGS
    Muxing mode                 : zlib
    Codec ID                    : S_HDMV/PGS
    Codec ID/Info               : Picture based subtitle format used on BDs/HD-DVDs
    Duration                    : 1 h 22 min
    Bit rate                    : 65.4 kb/s
    Count of elements           : 3415
    Stream size                 : 38.7 MiB (1%)
    Title                       : Inglés [CinemaniaHDD]
    Language                    : English
    Default                     : No
    Forced                      : No

    Menu
    00:00:00.000                : :Chapter 1
    00:03:54.109                : :Chapter 2
    00:09:00.165                : :Chapter 3
    00:11:51.169                : :Chapter 4
    00:15:08.658                : :Chapter 5
    00:17:29.882                : :Chapter 6
    00:21:20.821                : :Chapter 7
    00:27:27.688                : :Chapter 8
    00:31:25.801                : :Chapter 9
    00:35:06.104                : :Chapter 10
    00:40:11.868                : :Chapter 11
    00:47:16.334                : :Chapter 12
    00:51:01.308                : :Chapter 13
    00:57:54.388                : :Chapter 14
    01:02:27.953                : :Chapter 15
    01:06:46.669                : :Chapter 16
    01:09:56.984                : :Chapter 17
    01:14:19.538                : :Chapter 18
    01:20:00.796                : :Chapter 19
    01:23:35.511                : :Chapter 20

     

  • Peso: 4.88 GiB

Sinopsis

Después de ser invitados a su primera «fiesta del beso», tres buenos amigos destrozan por casualidad un dron que tenían prohibido tocar. Para reemplazarlo, se ausentan de clase y toman una serie de decisiones erróneas, involucrándose en un caso relacionado con droga, policía y, sobre todo, con muchas lágrimas.

Ficha técnica

Video trailer de la película

Enlaces de descarga

Rip de Bluray

Descargar Good Boys (2019) PLACEBO1080p Latino




Aportes de DPeliculasHDmega la pass es:dpeliculashdmega.org Aportes de CinemaniaHD la pass es:cinemaniahdd.com

Películas relacionadas

descargar Good Boys (2019) PLACEBO1080p Latino Full 1080p 1080p gratis, Good Boys (2019) PLACEBO1080p Latino Full 1080p mega 1 link, Good Boys (2019) PLACEBO1080p Latino Full 1080p pelicula completa, descargar Good Boys (2019) PLACEBO1080p Latino Full 1080p gratis en mega.

Good Boys (2019) PLACEBO1080p Latino pelicula full hd, Good Boys (2019) PLACEBO1080p Latino mega latino, Good Boys (2019) PLACEBO1080p Latino 4k latino, Good Boys (2019) PLACEBO1080p Latino pelicula completa, Good Boys (2019) PLACEBO1080p Latino descargar gratis, descargar Good Boys (2019) PLACEBO1080p Latino pelicula latino, Good Boys (2019) PLACEBO1080p Latino 1 link mega, Good Boys (2019) PLACEBO1080p Latino 1 link google drive, Good Boys (2019) PLACEBO1080p Latino hd 1080p latino.
Comentarios 0