×

¿Problemas para descargar con Mozilla, EDGE? Deshabilita la opción "Abrir vinculos en una pestaña nueva" tal como lo muestra ésta imagen.

12 horas (2012) Full HD 1080p Latino

626 vistas

Información de 12 horas (2012) Full HD 1080p Latino

Datos de la película

  • Calidad: Full 1080p
  • Audio: Se especifica abajo de la Sinopsis
  • Subtitulos: Español Latino SRT- FORZADOS SRT
  • Resolución: 1920x1080p
  • Formato: MKV
  • Codec: H.264
  • Encoder: CinefiloCool
  • Mediainfo: Clic para Mostrar Datos Ver
  • 12 Horas (2012) Full HD 1080p Latino-CMHDD.mkv
    Format                      : Matroska
    Format version              : Version 4
    File size                   : 4.02 GiB
    Duration                    : 1 h 34 min
    Overall bit rate            : 6 058 kb/s
    Movie name                  : Gone (2012) CinemaniaHDD.Net
    Encoded date                : UTC 2022-05-11 01:07:09
    Writing application         : mkvmerge v56.1.0 ('My Friend') 64-bit
    Writing library             : libebml v1.4.2 + libmatroska v1.6.4
    Attachments                 : CINEMANIAHD.png

    Video
    ID                          : 1
    Format                      : AVC
    Format/Info                 : Advanced Video Codec
    Format profile              : High@L4.1
    Format settings             : CABAC / 4 Ref Frames
    Format settings, CABAC      : Yes
    Format settings, Reference  : 4 frames
    Codec ID                    : V_MPEG4/ISO/AVC
    Duration                    : 1 h 34 min
    Bit rate                    : 3 255 kb/s
    Width                       : 1 920 pixels
    Height                      : 1 080 pixels
    Display aspect ratio        : 16:9
    Frame rate mode             : Constant
    Frame rate                  : 23.976 (24000/1001) FPS
    Color space                 : YUV
    Chroma subsampling          : 4:2:0
    Bit depth                   : 8 bits
    Scan type                   : Progressive
    Bits/(Pixel*Frame)          : 0.065
    Stream size                 : 2.16 GiB (54%)
    Title                       : Full HD1080p [CinemaniaHDD]
    Writing library             : x264 core 163 r3059 b684ebe0
    Encoding settings           : cabac=1 / ref=4 / deblock=1:0:0 / analyse=0x3:0x133 / me=tesa / subme=11 / psy=1 / psy_rd=1.00:0.00 / mixed_ref=1 / me_range=24 / chroma_me=1 / trellis=2 / 8x8dct=1 / cqm=0 / deadzone=21,11 / fast_pskip=0 / chroma_qp_offset=-2 / threads=24 / lookahead_threads=6 / sliced_threads=0 / nr=0 / decimate=1 / interlaced=0 / bluray_compat=0 / constrained_intra=0 / bframes=16 / b_pyramid=2 / b_adapt=2 / b_bias=0 / direct=3 / weightb=1 / open_gop=0 / weightp=2 / keyint=240 / keyint_min=24 / scenecut=40 / intra_refresh=0 / rc_lookahead=60 / rc=crf / mbtree=1 / crf=20.0 / qcomp=0.60 / qpmin=0 / qpmax=69 / qpstep=4 / vbv_maxrate=62500 / vbv_bufsize=78125 / crf_max=0.0 / nal_hrd=none / filler=0 / ip_ratio=1.40 / aq=1:1.00
    Default                     : Yes
    Forced                      : Yes
    Color range                 : Limited
    Color primaries             : BT.709
    Transfer characteristics    : BT.709
    Matrix coefficients         : BT.709

    Audio #1
    ID                          : 2
    Format                      : AC-3
    Format/Info                 : Audio Coding 3
    Commercial name             : Dolby Digital
    Codec ID                    : A_AC3
    Duration                    : 1 h 34 min
    Bit rate mode               : Constant
    Bit rate                    : 640 kb/s
    Channel(s)                  : 6 channels
    Channel layout              : L R C LFE Ls Rs
    Sampling rate               : 48.0 kHz
    Frame rate                  : 31.250 FPS (1536 SPF)
    Compression mode            : Lossy
    Stream size                 : 434 MiB (11%)
    Title                       : Español Latino AC3 [CinemaniaHDD]
    Language                    : Spanish
    Service kind                : Complete Main
    Default                     : Yes
    Forced                      : Yes

    Audio #2
    ID                          : 3
    Format                      : DTS
    Format/Info                 : Digital Theater Systems
    Codec ID                    : A_DTS
    Duration                    : 1 h 34 min
    Bit rate mode               : Constant
    Bit rate                    : 1 509 kb/s
    Channel(s)                  : 6 channels
    Channel layout              : C L R Ls Rs LFE
    Sampling rate               : 48.0 kHz
    Frame rate                  : 93.750 FPS (512 SPF)
    Bit depth                   : 24 bits
    Compression mode            : Lossy
    Stream size                 : 1.00 GiB (25%)
    Title                       : Ingles [CinemaniaHDD]
    Default                     : No
    Forced                      : No

    Audio #3
    ID                          : 4
    Format                      : E-AC-3
    Format/Info                 : Enhanced AC-3
    Commercial name             : Dolby Digital Plus
    Codec ID                    : A_EAC3
    Duration                    : 1 h 34 min
    Bit rate mode               : Constant
    Bit rate                    : 640 kb/s
    Channel(s)                  : 6 channels
    Channel layout              : L R C LFE Ls Rs
    Sampling rate               : 48.0 kHz
    Frame rate                  : 31.250 FPS (1536 SPF)
    Compression mode            : Lossy
    Delay relative to video     : 1 s 432 ms
    Stream size                 : 434 MiB (11%)
    Title                       : Español Latino EAC3 [CinemaniaHDD]
    Language                    : Spanish
    Service kind                : Complete Main
    Default                     : No
    Forced                      : No

    Text #1
    ID                          : 5
    Format                      : UTF-8
    Codec ID                    : S_TEXT/UTF8
    Codec ID/Info               : UTF-8 Plain Text
    Duration                    : 1 h 27 min
    Bit rate                    : 0 b/s
    Count of elements           : 12
    Stream size                 : 271 Bytes (0%)
    Title                       : Forzados-SRT [CinemaniaHDD]
    Language                    : Spanish
    Default                     : Yes
    Forced                      : Yes

    Text #2
    ID                          : 6
    Format                      : UTF-8
    Codec ID                    : S_TEXT/UTF8
    Codec ID/Info               : UTF-8 Plain Text
    Duration                    : 1 h 27 min
    Bit rate                    : 48 b/s
    Count of elements           : 931
    Stream size                 : 31.1 KiB (0%)
    Title                       : Español-SRT [CinemaniaHDD]
    Language                    : Spanish
    Default                     : No
    Forced                      : No

    Text #3
    ID                          : 7
    Format                      : PGS
    Muxing mode                 : zlib
    Codec ID                    : S_HDMV/PGS
    Codec ID/Info               : Picture based subtitle format used on BDs/HD-DVDs
    Duration                    : 1 h 25 min
    Bit rate                    : 41.4 kb/s
    Count of elements           : 2246
    Stream size                 : 25.4 MiB (1%)
    Title                       : Ingles [CinemaniaHDD]
    Language                    : English
    Default                     : No
    Forced                      : No

    Menu
    00:00:00.000                : Chapter 01
    00:08:39.018                : Chapter 02
    00:16:23.691                : Chapter 03
    00:24:13.285                : Chapter 04
    00:32:07.467                : Chapter 05
    00:40:43.441                : Chapter 06
    00:47:37.437                : Chapter 07
    00:55:52.223                : Chapter 08
    01:04:19.272                : Chapter 09
    01:12:47.321                : Chapter 10
    01:21:44.065                : Chapter 11
    01:29:32.658                : Chapter 12

  • Peso: 4.02 GiB

Sinopsis

Descargar 12 horas (2012) Full HD 1080p Latino. Jill Parrish llega un día a su casa después de trabajar un turno de noche y descubre que su hermana, Molly, ha sido secuestrada. Jill, que ya tiene experiencia en esa materia, tras haber logrado escapar de las garras de un asesino en serie que la secuestró un año antes, está convencida de que se trata del mismo individuo. La policía cree que Jill está loca, por lo que no se muestran muy dispuestos a malgastar sus recursos para ayudarla. Al temerse que Molly pueda estar muerta para la puesta de sol, Jill decide emprender por su cuenta una persecución para encontrar al asesino, sacar a la luz sus secretos y salvar a su hermana.

Audio Español Latino AC3 5.1 + EAC3 5.1 Web – Ingles DTS 5.1 Bluray

Ficha técnica

Video trailer de la película

Enlaces de descarga

Rip de Bluray

Descargar 12 horas (2012) Full HD 1080p Latino




Aportes de DPeliculasHDmega la pass es:dpeliculashdmega.org Aportes de CinemaniaHD la pass es:cinemaniahdd.com

Películas relacionadas

  • Warning (2021) PLACEBO Full HD 1080p Latino

    Warning (2021) PLACEBO Full HD 1080p Latino

    2021
    Warning (2021) PLACEBO Full HD 1080p Latino

    1h 25m 2021

    Descargar Warning (2021) PLACEBO Full HD 1080p Latino. Ambientada en un futuro no muy lejano, la obra...

    Director: Agata Alexander

    Género: Ciencia ficción

    Actores: Toni Garrn

  • Warning (2021) REMUX 1080p Latino

    Warning (2021) REMUX 1080p Latino

    2021
    Warning (2021) REMUX 1080p Latino

    1h 25m 2021

    Descargar Warning (2021) REMUX 1080p Latino. Ambientada en un futuro no muy lejano, la obra reflexiona...

    Director: Agata Alexander

    Género: Ciencia ficción

    Actores: Toni Garrn

  • Paratemporal (2019) HD 1080p Latino

    Paratemporal (2019) HD 1080p Latino

    2020
    Paratemporal (2019) HD 1080p Latino

    1h 42m 2020

    Descargar Paratemporal (2019) HD 1080p Latino. Dos paramédicos de Nueva Orleans ven cómo sus vidas...

    Director: Sandy Parker

    Género: Ciencia ficción

    Actores: Walker Babington

  • Paratemporal (2019) PLACEBO Full HD 1080p Latino

    Paratemporal (2019) PLACEBO Full HD 1080p Latino

    2020
    Paratemporal (2019) PLACEBO Full HD 1080p Latino

    1h 42m 2020

    Descargar Paratemporal (2019) PLACEBO Full HD 1080p Latino. Dos paramédicos de Nueva Orleans ven cómo...

    Director: Sandy Parker

    Género: Ciencia ficción

    Actores: Walker Babington

  • Paratemporal (2019) REMUX 1080p Latino

    Paratemporal (2019) REMUX 1080p Latino

    2020
    Paratemporal (2019) REMUX 1080p Latino

    1h 42m 2020

    Descargar Paratemporal (2019) REMUX 1080p Latino. Dos paramédicos de Nueva Orleans ven cómo sus vidas...

    Director: Sandy Parker

    Género: Ciencia ficción

    Actores: Walker Babington

12 horas (2012) Full HD 1080p Latino pelicula full hd, 12 horas (2012) Full HD 1080p Latino mega latino, 12 horas (2012) Full HD 1080p Latino 4k latino, 12 horas (2012) Full HD 1080p Latino pelicula completa, 12 horas (2012) Full HD 1080p Latino descargar gratis, descargar 12 horas (2012) Full HD 1080p Latino pelicula latino, 12 horas (2012) Full HD 1080p Latino 1 link mega, 12 horas (2012) Full HD 1080p Latino 1 link google drive, 12 horas (2012) Full HD 1080p Latino hd 1080p latino.
Comentarios 0