Golpe de Suerte (2020) PLACEBO Full HD 1080p Latino

72 vistas
1 estrella2 estrellas3 estrellas4 estrellas5 estrellas (Ninguna valoración todavía)
Cargando...

Información de Golpe de Suerte (2020) PLACEBO Full HD 1080p Latino

Datos de la película

  • Calidad: Full 1080p
  • Audio: Se especifica abajo de la Sinopsis
  • Subtitulos: Español Latino SRT- FORZADOS SRT
  • Resolución: 1920x1080p
  • Formato: MKV
  • Codec: H.264
  • Encoder: Melkor
  • Mediainfo: Clic para Mostrar Datos Ver
  • Golpe De Suerte (2020) PLACEBO 1080p Latino.mkv
    Format                      : Matroska
    Format version              : Version 4
    File size                   : 6.43 GiB
    Duration                    : 1 h 48 min
    Overall bit rate mode       : Variable
    Overall bit rate            : 8 462 kb/s
    Movie name                  : Beasts That Cling to the Straw (2020) CinemaniaHDD.Net
    Encoded date                : UTC 2021-07-08 21:15:40
    Writing application         : mkvmerge v56.1.0 ('My Friend') 64-bit
    Writing library             : libebml v1.4.2 + libmatroska v1.6.4
    Attachments                 : CINEMANIAHD.png

    Video
    ID                          : 1
    Format                      : AVC
    Format/Info                 : Advanced Video Codec
    Format profile              : High@L4.1
    Format settings             : CABAC / 4 Ref Frames
    Format settings, CABAC      : Yes
    Format settings, Reference  : 4 frames
    Codec ID                    : V_MPEG4/ISO/AVC
    Duration                    : 1 h 48 min
    Bit rate                    : 4 992 kb/s
    Width                       : 1 920 pixels
    Height                      : 1 080 pixels
    Display aspect ratio        : 16:9
    Frame rate mode             : Constant
    Frame rate                  : 24.000 FPS
    Color space                 : YUV
    Chroma subsampling          : 4:2:0
    Bit depth                   : 8 bits
    Scan type                   : Progressive
    Bits/(Pixel*Frame)          : 0.100
    Stream size                 : 3.79 GiB (59%)
    Title                       : Full HD1080p [CinemaniaHDD]
    Writing library             : x264 core 157 r2935 545de2f
    Encoding settings           : cabac=1 / ref=4 / deblock=1:0:0 / analyse=0x3:0x133 / me=tesa / subme=11 / psy=1 / psy_rd=1.00:0.00 / mixed_ref=1 / me_range=24 / chroma_me=1 / trellis=2 / 8x8dct=1 / cqm=0 / deadzone=21,11 / fast_pskip=0 / chroma_qp_offset=-2 / threads=24 / lookahead_threads=6 / sliced_threads=0 / nr=0 / decimate=1 / interlaced=0 / bluray_compat=0 / constrained_intra=0 / bframes=16 / b_pyramid=2 / b_adapt=2 / b_bias=0 / direct=3 / weightb=1 / open_gop=0 / weightp=2 / keyint=240 / keyint_min=24 / scenecut=40 / intra_refresh=0 / rc_lookahead=60 / rc=crf / mbtree=1 / crf=19.0 / qcomp=0.60 / qpmin=0 / qpmax=69 / qpstep=4 / vbv_maxrate=62500 / vbv_bufsize=78125 / crf_max=0.0 / nal_hrd=none / filler=0 / ip_ratio=1.40 / aq=1:1.00
    Default                     : Yes
    Forced                      : Yes
    Color range                 : Limited
    Color primaries             : BT.709
    Transfer characteristics    : BT.709
    Matrix coefficients         : BT.709

    Audio #1
    ID                          : 2
    Format                      : AC-3
    Format/Info                 : Audio Coding 3
    Commercial name             : Dolby Digital
    Codec ID                    : A_AC3
    Duration                    : 1 h 48 min
    Bit rate mode               : Constant
    Bit rate                    : 256 kb/s
    Channel(s)                  : 2 channels
    Channel layout              : L R
    Sampling rate               : 48.0 kHz
    Frame rate                  : 31.250 FPS (1536 SPF)
    Compression mode            : Lossy
    Stream size                 : 199 MiB (3%)
    Title                       : Español Latino [CinemaniaHDD]
    Language                    : Spanish
    Service kind                : Complete Main
    Default                     : Yes
    Forced                      : Yes

    Audio #2
    ID                          : 3
    Format                      : MLP FBA
    Format/Info                 : Meridian Lossless Packing FBA
    Commercial name             : Dolby TrueHD
    Codec ID                    : A_TRUEHD
    Duration                    : 1 h 48 min
    Bit rate mode               : Variable
    Bit rate                    : 2 504 kb/s
    Maximum bit rate            : 4 422 kb/s
    Channel(s)                  : 6 channels
    Channel layout              : L R C LFE Ls Rs
    Sampling rate               : 96.0 kHz
    Frame rate                  : 1 200.000 FPS (80 SPF)
    Compression mode            : Lossless
    Stream size                 : 1.90 GiB (30%)
    Title                       : Coreano THD [CinemaniaHDD]
    Language                    : Korean
    Default                     : No
    Forced                      : No

    Audio #3
    ID                          : 4
    Format                      : AC-3
    Format/Info                 : Audio Coding 3
    Commercial name             : Dolby Digital
    Codec ID                    : A_AC3
    Duration                    : 1 h 48 min
    Bit rate mode               : Constant
    Bit rate                    : 640 kb/s
    Channel(s)                  : 6 channels
    Channel layout              : L R C LFE Ls Rs
    Sampling rate               : 48.0 kHz
    Frame rate                  : 31.250 FPS (1536 SPF)
    Compression mode            : Lossy
    Stream size                 : 498 MiB (8%)
    Title                       : Coreano AC3 [CinemaniaHDD]
    Language                    : Korean
    Service kind                : Complete Main
    Default                     : No
    Forced                      : No

    Text #1
    ID                          : 5
    Format                      : UTF-8
    Codec ID                    : S_TEXT/UTF8
    Codec ID/Info               : UTF-8 Plain Text
    Duration                    : 5 s 55 ms
    Bit rate                    : 49 b/s
    Count of elements           : 1
    Stream size                 : 31.0 Bytes (0%)
    Title                       : Forzados-SRT [CinemaniaHDD]
    Language                    : Spanish
    Default                     : Yes
    Forced                      : Yes

    Text #2
    ID                          : 6
    Format                      : UTF-8
    Codec ID                    : S_TEXT/UTF8
    Codec ID/Info               : UTF-8 Plain Text
    Duration                    : 1 h 41 min
    Bit rate                    : 41 b/s
    Count of elements           : 1232
    Stream size                 : 31.0 KiB (0%)
    Title                       : Español-SRT [CinemaniaHDD]
    Language                    : Spanish
    Default                     : No
    Forced                      : No

    Text #3
    ID                          : 7
    Format                      : UTF-8
    Codec ID                    : S_TEXT/UTF8
    Codec ID/Info               : UTF-8 Plain Text
    Duration                    : 1 h 41 min
    Bit rate                    : 40 b/s
    Count of elements           : 1242
    Stream size                 : 29.7 KiB (0%)
    Title                       : Ingles-SRT [CinemaniaHDD]
    Language                    : English
    Default                     : No
    Forced                      : No

    Menu
    00:00:00.000                : 00:00:00.000
    00:06:26.208                : 00:06:26.208
    00:10:31.042                : 00:10:31.042
    00:15:19.750                : 00:15:19.750
    00:20:16.208                : 00:20:16.208
    00:23:49.042                : 00:23:49.042
    00:27:51.625                : 00:27:51.625
    00:31:01.917                : 00:31:01.917
    00:39:34.708                : 00:39:34.708
    00:43:58.083                : 00:43:58.083
    00:49:03.042                : 00:49:03.042
    00:56:49.250                : 00:56:49.250
    01:02:44.625                : 01:02:44.625
    01:06:27.583                : 01:06:27.583
    01:16:26.375                : 01:16:26.375
    01:22:36.208                : 01:22:36.208
    01:26:40.458                : 01:26:40.458
    01:31:54.458                : 01:31:54.458
    01:37:55.083                : 01:37:55.083
    01:41:29.833                : 01:41:29.833

  • Peso: 6.43 GiB

Sinopsis

Descargar Golpe de Suerte (2020) PLACEBO Full HD 1080p Latino. Los destinos de los maleantes de la mala suerte convergen lentamente y se derrumban: Jung-man apenas se las arregla trabajando en una sauna y cuidando a su madre enferma hasta que encuentra una bolsa llena de dinero en efectivo en el vestuario; Tae-young está en problemas después de que su novia se fugó con el dinero que pidió prestado a un usurero. Pronto, aparece misteriosamente un cadáver; Mi-ran, atrapada entre la violencia de su esposo y un trabajo sin futuro como anfitriona de un bar, encuentra un joven amante, Jin-tae, que se ofrece a matar a su esposo … Y ahora comienza su juego de perro come perro.

Español Latino AC3 2.0 – Coreano TrueHD & AC3 5.1

Ficha técnica

Video trailer de la película

Enlaces de descarga

Rip de Bluray

Descargar Golpe de Suerte (2020) PLACEBO Full HD 1080p Latino




Aportes de DPeliculasHDmega la pass es:dpeliculashdmega.org Aportes de CinemaniaHD la pass es:cinemaniahdd.com

Películas relacionadas

Golpe de Suerte (2020) PLACEBO Full HD 1080p Latino pelicula full hd, Golpe de Suerte (2020) PLACEBO Full HD 1080p Latino mega latino, Golpe de Suerte (2020) PLACEBO Full HD 1080p Latino 4k latino, Golpe de Suerte (2020) PLACEBO Full HD 1080p Latino pelicula completa, Golpe de Suerte (2020) PLACEBO Full HD 1080p Latino descargar gratis, descargar Golpe de Suerte (2020) PLACEBO Full HD 1080p Latino pelicula latino, Golpe de Suerte (2020) PLACEBO Full HD 1080p Latino 1 link mega, Golpe de Suerte (2020) PLACEBO Full HD 1080p Latino 1 link google drive, Golpe de Suerte (2020) PLACEBO Full HD 1080p Latino hd 1080p latino.
Comentarios 0