×

¿Problemas para descargar con Mozilla, EDGE? Deshabilita la opción "Abrir vinculos en una pestaña nueva" tal como lo muestra ésta imagen.

Goliath (2019) Temporada 1 y 2 WEB-DL AMZN 1080p Latino

1.183 vistas

Información de Goliath (2019) Temporada 1 y 2 WEB-DL AMZN 1080p Latino

goliath

Datos de la película

  • Calidad: WEBDL
  • Audio: Español Latino E-AC3 5.1 AMAZON - Ingles E-AC3 5.1 AMAZON
  • Subtitulos: Español Latino SRT
  • Resolución: 1920x1080
  • Formato: MKV
  • Codec: H.264
  • Encoder: cinemaniahd
  • Mediainfo: Clic para Mostrar Datos Ver
  • Goliath S01E01 WEB-DL AMZN 1080p Latino.mkv
    Format                      : Matroska
    Format version              : Version 4
    File size                   : 2.31 GiB
    Duration                    : 54 min 44 s
    Overall bit rate            : 6 048 kb/s
    Movie name                  : Goliath S01E01 WEB-DL AMZN 1080p Latino
    Encoded date                : UTC 2019-07-18 21:30:06
    Writing application         : mkvmerge v35.0.0 ('All The Love In The World') 64-bit
    Writing library             : libebml v1.3.9 + libmatroska v1.5.2

    Video
    ID                          : 1
    Format                      : AVC
    Format/Info                 : Advanced Video Codec
    Format profile              : High@L4
    Format settings             : CABAC / 4 Ref Frames
    Format settings, CABAC      : Yes
    Format settings, ReFrames   : 4 frames
    Codec ID                    : V_MPEG4/ISO/AVC
    Duration                    : 54 min 44 s
    Bit rate                    : 4 765 kb/s
    Width                       : 1 920 pixels
    Height                      : 1 080 pixels
    Display aspect ratio        : 16:9
    Frame rate mode             : Constant
    Frame rate                  : 23.976 (24000/1001) FPS
    Color space                 : YUV
    Chroma subsampling          : 4:2:0
    Bit depth                   : 8 bits
    Scan type                   : Progressive
    Bits/(Pixel*Frame)          : 0.096
    Stream size                 : 1.82 GiB (79%)
    Title                       : CinemaniaHDD
    Default                     : Yes
    Forced                      : No
    Color range                 : Limited
    Color primaries             : BT.709
    Transfer characteristics    : BT.709
    Matrix coefficients         : BT.709

    Audio #1
    ID                          : 2
    Format                      : E-AC-3
    Format/Info                 : Enhanced AC-3
    Commercial name             : Dolby Digital Plus
    Codec ID                    : A_EAC3
    Duration                    : 54 min 44 s
    Bit rate mode               : Constant
    Bit rate                    : 640 kb/s
    Channel(s)                  : 6 channels
    Channel layout              : L R C LFE Ls Rs
    Sampling rate               : 48.0 kHz
    Frame rate                  : 31.250 FPS (1536 SPF)
    Compression mode            : Lossy
    Stream size                 : 251 MiB (11%)
    Title                       : Español latino [CinemaniaHDD]
    Language                    : Spanish
    Service kind                : Complete Main
    Default                     : Yes
    Forced                      : No

    Audio #2
    ID                          : 3
    Format                      : E-AC-3
    Format/Info                 : Enhanced AC-3
    Commercial name             : Dolby Digital Plus
    Codec ID                    : A_EAC3
    Duration                    : 54 min 44 s
    Bit rate mode               : Constant
    Bit rate                    : 640 kb/s
    Channel(s)                  : 6 channels
    Channel layout              : L R C LFE Ls Rs
    Sampling rate               : 48.0 kHz
    Frame rate                  : 31.250 FPS (1536 SPF)
    Compression mode            : Lossy
    Stream size                 : 251 MiB (11%)
    Title                       : Inglés [CinemaniaHDD]
    Language                    : English
    Service kind                : Complete Main
    Default                     : No
    Forced                      : No

    Text
    ID                          : 4
    Format                      : UTF-8
    Codec ID                    : S_TEXT/UTF8
    Codec ID/Info               : UTF-8 Plain Text
    Duration                    : 51 min 42 s
    Bit rate                    : 74 b/s
    Count of elements           : 854
    Stream size                 : 28.3 KiB (0%)
    Title                       : Español latino [CinemaniaHDD]
    Language                    : Spanish
    Default                     : No
    Forced                      : No

  • Peso: 39 GB TOTAL

Sinopsis

Una vez que fue un abogado poderoso, Billy McBride ahora está quemado y lavado, pasando más tiempo en un bar que en un tribunal. Cuando acepta a regañadientes emprender una demanda por muerte injusta contra el cliente más grande de Cooperman & McBride, el bufete de abogados masivo que ayudó a crear, Billy y su equipo de ragtag descubrieron una vasta y mortal conspiración, enfrentándolos a todos en un juicio de vida o muerte contra el último Goliat.

Ficha técnica

Video trailer de la película

Enlaces de descarga

Rip de Bluray

Descargar Goliath (2019) Temporada 1 y 2 WEB-DL AMZN 1080p Latino




Aportes de DPeliculasHDmega la pass es:dpeliculashdmega.org Aportes de CinemaniaHD la pass es:cinemaniahdd.com
Guardado en : Crimen , Drama , Series

Películas relacionadas

  • Stromboli (2022) NF WEB-DL 1080p Latino

    Stromboli (2022) NF WEB-DL 1080p Latino

    2022
    Stromboli (2022) NF WEB-DL 1080p Latino

    1h 26m 2022

    Descargar Stromboli (2022) NF WEB-DL 1080p Latino. Sara, una mujer que se ha divorciado recientemente,...

    Director: Michiel van Erp

    Género: Drama

    Actores: Tim McInnerny

  • Infiesto (2023) NF WEB-DL 1080p Castellano

    Infiesto (2023) NF WEB-DL 1080p Castellano

    2023
    Infiesto (2023) NF WEB-DL 1080p Castellano

    1h 36m 2023

    Descargar Infiesto (2023) NF WEB-DL 1080p Castellano. Mientras el coronavirus trastoca sus vidas, dos...

    Director: Patxi Amezcua

    Género: Crimen

    Actores: Luis Zahera

  • Espiritu Libre (2023) NF WEB-DL 1080p Latino

    Espiritu Libre (2023) NF WEB-DL 1080p Latino

    2023
    Espiritu Libre (2023) NF WEB-DL 1080p Latino

    1h 49m 2023

    Descargar Espiritu Libre (2023) NF WEB-DL 1080p Latino. La película se basa en la increíble historia...

    Director: Sarah Spillane

    Género: Aventura

    Actores: Vivien Turner

descargar Goliath (2019) Temporada 1 y 2 WEB-DL AMZN 1080p Latino WEBDL 1080p gratis, Goliath (2019) Temporada 1 y 2 WEB-DL AMZN 1080p Latino WEBDL mega 1 link, Goliath (2019) Temporada 1 y 2 WEB-DL AMZN 1080p Latino WEBDL serie completa, descargar Goliath (2019) Temporada 1 y 2 WEB-DL AMZN 1080p Latino WEBDL gratis en mega.

Goliath (2019) Temporada 1 y 2 WEB-DL AMZN 1080p Latino pelicula full hd, Goliath (2019) Temporada 1 y 2 WEB-DL AMZN 1080p Latino mega latino, Goliath (2019) Temporada 1 y 2 WEB-DL AMZN 1080p Latino 4k latino, Goliath (2019) Temporada 1 y 2 WEB-DL AMZN 1080p Latino pelicula completa, Goliath (2019) Temporada 1 y 2 WEB-DL AMZN 1080p Latino descargar gratis, descargar Goliath (2019) Temporada 1 y 2 WEB-DL AMZN 1080p Latino pelicula latino, Goliath (2019) Temporada 1 y 2 WEB-DL AMZN 1080p Latino 1 link mega, Goliath (2019) Temporada 1 y 2 WEB-DL AMZN 1080p Latino 1 link google drive, Goliath (2019) Temporada 1 y 2 WEB-DL AMZN 1080p Latino hd 1080p latino.
Comentarios 0