×

¿Problemas para descargar con Mozilla, EDGE? Deshabilita la opción "Abrir vinculos en una pestaña nueva" tal como lo muestra ésta imagen.

James Bond: 007 Contra Goldfinger (1964) 1080p Latino

532 vistas

Información de James Bond: 007 Contra Goldfinger (1964) 1080p Latino

Datos de la película

  • Calidad: 1080p
  • Audio: Español Latino AC3 5.1 BLURAY - Ingles AC3 5.1 BLURAY
  • Subtitulos: Español Latino SRT - Ingles SRT
  • Resolución: 1920x1018p
  • Formato: MKV
  • Codec: H.264
  • Encoder: CinefiloCool
  • Mediainfo: Clic para Mostrar Datos Ver
  • 007 Contra Goldfinger (1964) 1080p Latino-CMHDD.mkv
    Format                      : Matroska
    Format version              : Version 4
    File size                   : 3.98 GiB
    Duration                    : 1 h 50 min
    Overall bit rate mode       : Variable
    Overall bit rate            : 5 186 kb/s
    Movie name                  : Goldfinger (1964) CinemaniaHDD.Net
    Encoded date                : UTC 2020-05-25 05:26:37
    Writing application         : mkvmerge v46.0.0 ('No Deeper Escape') 64-bit
    Writing library             : libebml v1.3.10 + libmatroska v1.5.2
    Attachments                 : CINEMANIAHD.png

    Video
    ID                          : 1
    Format                      : AVC
    Format/Info                 : Advanced Video Codec
    Format profile              : High@L4
    Format settings             : CABAC / 3 Ref Frames
    Format settings, CABAC      : Yes
    Format settings, Reference  : 3 frames
    Codec ID                    : V_MPEG4/ISO/AVC
    Duration                    : 1 h 50 min
    Bit rate mode               : Variable
    Bit rate                    : 4 096 kb/s
    Width                       : 1 808 pixels
    Height                      : 1 018 pixels
    Display aspect ratio        : 16:9
    Frame rate mode             : Constant
    Frame rate                  : 23.976 (24000/1001) FPS
    Color space                 : YUV
    Chroma subsampling          : 4:2:0
    Bit depth                   : 8 bits
    Scan type                   : Progressive
    Bits/(Pixel*Frame)          : 0.093
    Stream size                 : 3.15 GiB (79%)
    Title                       : HD1080p [CinemaniaHDD]
    Writing library             : x264 core 142 r2479 dd79a61
    Encoding settings           : cabac=1 / ref=3 / deblock=1:0:0 / analyse=0x3:0x113 / me=hex / subme=7 / psy=1 / psy_rd=1.00:0.00 / mixed_ref=1 / me_range=16 / chroma_me=1 / trellis=1 / 8x8dct=1 / cqm=0 / deadzone=21,11 / fast_pskip=1 / chroma_qp_offset=-2 / threads=6 / lookahead_threads=1 / sliced_threads=0 / nr=0 / decimate=1 / interlaced=0 / bluray_compat=0 / constrained_intra=0 / bframes=3 / b_pyramid=0 / b_adapt=1 / b_bias=0 / direct=1 / weightb=1 / open_gop=0 / weightp=2 / keyint=240 / keyint_min=24 / scenecut=40 / intra_refresh=0 / rc_lookahead=40 / rc=2pass / mbtree=1 / bitrate=4096 / ratetol=1.0 / qcomp=0.60 / qpmin=0 / qpmax=69 / qpstep=4 / cplxblur=20.0 / qblur=0.5 / vbv_maxrate=25000 / vbv_bufsize=25000 / nal_hrd=vbr / filler=0 / ip_ratio=1.40 / aq=1:1.00
    Default                     : Yes
    Forced                      : No

    Audio #1
    ID                          : 2
    Format                      : AC-3
    Format/Info                 : Audio Coding 3
    Commercial name             : Dolby Digital
    Codec ID                    : A_AC3
    Duration                    : 1 h 49 min
    Bit rate mode               : Constant
    Bit rate                    : 448 kb/s
    Channel(s)                  : 6 channels
    Channel layout              : L R C LFE Ls Rs
    Sampling rate               : 48.0 kHz
    Frame rate                  : 31.250 FPS (1536 SPF)
    Compression mode            : Lossy
    Delay relative to video     : 25 ms
    Stream size                 : 352 MiB (9%)
    Title                       : Español Latino [CinemaniaHDD]
    Language                    : Spanish
    Service kind                : Complete Main
    Default                     : Yes
    Forced                      : Yes

    Audio #2
    ID                          : 3
    Format                      : AC-3
    Format/Info                 : Audio Coding 3
    Commercial name             : Dolby Digital
    Codec ID                    : A_AC3
    Duration                    : 1 h 50 min
    Bit rate mode               : Constant
    Bit rate                    : 640 kb/s
    Channel(s)                  : 6 channels
    Channel layout              : L R C LFE Ls Rs
    Sampling rate               : 48.0 kHz
    Frame rate                  : 31.250 FPS (1536 SPF)
    Compression mode            : Lossy
    Stream size                 : 504 MiB (12%)
    Title                       : Ingles [CinemaniaHDD]
    Language                    : English
    Service kind                : Complete Main
    Default                     : No
    Forced                      : No

    Text #1
    ID                          : 4
    Format                      : UTF-8
    Codec ID                    : S_TEXT/UTF8
    Codec ID/Info               : UTF-8 Plain Text
    Duration                    : 1 h 47 min
    Bit rate                    : 0 b/s
    Count of elements           : 14
    Stream size                 : 314 Bytes (0%)
    Title                       : Forzados-SRT [CinemaniaHDD]
    Language                    : Spanish
    Default                     : Yes
    Forced                      : Yes

    Text #2
    ID                          : 5
    Format                      : UTF-8
    Codec ID                    : S_TEXT/UTF8
    Codec ID/Info               : UTF-8 Plain Text
    Duration                    : 1 h 45 min
    Bit rate                    : 41 b/s
    Count of elements           : 818
    Stream size                 : 32.3 KiB (0%)
    Title                       : Español-SRT [CinemaniaHDD]
    Language                    : Spanish
    Default                     : No
    Forced                      : No

    Text #3
    ID                          : 6
    Format                      : UTF-8
    Codec ID                    : S_TEXT/UTF8
    Codec ID/Info               : UTF-8 Plain Text
    Duration                    : 1 h 45 min
    Bit rate                    : 39 b/s
    Count of elements           : 934
    Stream size                 : 30.8 KiB (0%)
    Title                       : Ingles-SRT [CinemaniaHDD]
    Language                    : English
    Default                     : No
    Forced                      : No

    Menu
    00:00:00.000                : :Chapter 1
    00:03:19.199                : :Chapter 2
    00:05:02.677                : :Chapter 3
    00:07:49.219                : :Chapter 4
    00:08:53.116                : :Chapter 5
    00:09:56.596                : :Chapter 6
    00:11:34.736                : :Chapter 7
    00:15:55.079                : :Chapter 8
    00:17:56.951                : :Chapter 9
    00:22:39.108                : :Chapter 10
    00:25:18.559                : :Chapter 11
    00:31:25.634                : :Chapter 12
    00:33:37.224                : :Chapter 13
    00:36:41.366                : :Chapter 14
    00:40:41.522                : :Chapter 15
    00:42:59.660                : :Chapter 16
    00:47:48.574                : :Chapter 17
    00:50:11.800                : :Chapter 18
    00:54:09.121                : :Chapter 19
    00:56:34.182                : :Chapter 20
    01:00:12.567                : :Chapter 21
    01:02:56.273                : :Chapter 22
    01:04:45.215                : :Chapter 23
    01:06:47.253                : :Chapter 24
    01:09:50.269                : :Chapter 25
    01:13:04.755                : :Chapter 26
    01:14:44.939                : :Chapter 27
    01:20:40.836                : :Chapter 28
    01:25:01.138                : :Chapter 29
    01:27:53.852                : :Chapter 30
    01:38:00.583                : :Chapter 31
    01:45:29.532                : :Chapter 32

  • Peso: 3.98 GiB

Sinopsis

Descargar James Bond: 007 Contra Goldfinger (1964) 1080p Latino. El agente británico 007 se deberá ver las caras con Auric Goldfinger, un malvado magnate que hace contrabando a escala internacional y que está fascinado por el oro. En el transcurso de la investigación, James oirá por primera vez hablar sobre la operación «Grand Slam», que parece ser un plan para desestabilizar toda la economía mundial.

Ficha técnica

Video trailer de la película

Enlaces de descarga

Rip de Bluray

Descargar James Bond: 007 Contra Goldfinger (1964) 1080p Latino




Aportes de DPeliculasHDmega la pass es:dpeliculashdmega.org Aportes de CinemaniaHD la pass es:cinemaniahdd.com
Guardado en : Acción , Aventura , HD 1080p , Suspenso

Películas relacionadas

  • Paradise Highway (2022) HD 1080p Latino

    Paradise Highway (2022) HD 1080p Latino

    2022
    Paradise Highway (2022) HD 1080p Latino

    1h 55m 2022

    Descargar Paradise Highway (2022) HD 1080p Latino. Un camionero se ha visto obligado a pasar de contrabando...

    Director: Anna Gutto

    Género: Crimen

    Actores: Xavier Scott Evans

  • Paradise Highway (2022) PLACEBO Full HD 1080p Latino

    Paradise Highway (2022) PLACEBO Full HD 1080p Latino

    2022
    Paradise Highway (2022) PLACEBO Full HD 1080p Latino

    1h 55m 2022

    Descargar Paradise Highway (2022) PLACEBO Full HD 1080p Latino. Un camionero se ha visto obligado a pasar...

    Director: Anna Gutto

    Género: Crimen

    Actores: Xavier Scott Evans

  • Paradise Highway (2022) REMUX 1080p Latino

    Paradise Highway (2022) REMUX 1080p Latino

    2022
    Paradise Highway (2022) REMUX 1080p Latino

    1h 55m 2022

    Descargar Paradise Highway (2022) REMUX 1080p Latino. Un camionero se ha visto obligado a pasar de contrabando...

    Director: Anna Gutto

    Género: Crimen

    Actores: Xavier Scott Evans

  • Shotgun Wedding (2022) AMZN WEB-DL 1080p Latino

    Shotgun Wedding (2022) AMZN WEB-DL 1080p Latino

    2022
    Shotgun Wedding (2022) AMZN WEB-DL 1080p Latino

    1h 41m 2022

    Darcy y Tom reúnen a sus familias para la boda de destino definitiva, pero cuando toman como rehenes...

    Director: Jason Moore

    Género: Acción

    Actores: Steve Coulter

descargar James Bond: 007 Contra Goldfinger (1964) 1080p Latino 1080p 1080p gratis, James Bond: 007 Contra Goldfinger (1964) 1080p Latino 1080p mega 1 link, James Bond: 007 Contra Goldfinger (1964) 1080p Latino 1080p pelicula completa, descargar James Bond: 007 Contra Goldfinger (1964) 1080p Latino 1080p gratis en mega.

James Bond: 007 Contra Goldfinger (1964) 1080p Latino pelicula full hd, James Bond: 007 Contra Goldfinger (1964) 1080p Latino mega latino, James Bond: 007 Contra Goldfinger (1964) 1080p Latino 4k latino, James Bond: 007 Contra Goldfinger (1964) 1080p Latino pelicula completa, James Bond: 007 Contra Goldfinger (1964) 1080p Latino descargar gratis, descargar James Bond: 007 Contra Goldfinger (1964) 1080p Latino pelicula latino, James Bond: 007 Contra Goldfinger (1964) 1080p Latino 1 link mega, James Bond: 007 Contra Goldfinger (1964) 1080p Latino 1 link google drive, James Bond: 007 Contra Goldfinger (1964) 1080p Latino hd 1080p latino.
Comentarios 0