×

¿Problemas para descargar con Mozilla, EDGE? Deshabilita la opción "Abrir vinculos en una pestaña nueva" tal como lo muestra ésta imagen.

James Bond: Goldeneye, El Regreso Del Agente 007 (1995) REMUX 1080p Latino

513 vistas

Información de James Bond: Goldeneye, El Regreso Del Agente 007 (1995) REMUX 1080p Latino

Datos de la película

  • Calidad: Full 1080p
  • Audio: Español Latino AC3 5.1 BLURAY - Ingles DTS 5.1 BLURAY
  • Subtitulos: Español Latino PGS - Ingles PGS
  • Resolución: 1920x1080p
  • Formato: MKV
  • Codec: H.264
  • Encoder: CinefiloCool
  • Mediainfo: Clic para Mostrar Datos Ver
  • GoldenEye El Regreso Del Agente 007 (1995) REMUX 1080p Latino-CMHDD.mkv
    Format                      : Matroska
    Format version              : Version 4
    File size                   : 24.7 GiB
    Duration                    : 2 h 10 min
    Overall bit rate mode       : Variable
    Overall bit rate            : 27.2 Mb/s
    Movie name                  : GoldenEye (1995) CinemaniaHDD.Net
    Encoded date                : UTC 2020-06-12 04:26:50
    Writing application         : mkvmerge v46.0.0 ('No Deeper Escape') 64-bit
    Writing library             : libebml v1.3.10 + libmatroska v1.5.2
    Attachments                 : CINEMANIAHD.png

    Video
    ID                          : 1
    Format                      : AVC
    Format/Info                 : Advanced Video Codec
    Format profile              : High@L4.1
    Format settings             : CABAC / 4 Ref Frames
    Format settings, CABAC      : Yes
    Format settings, Reference  : 4 frames
    Codec ID                    : V_MPEG4/ISO/AVC
    Duration                    : 2 h 10 min
    Bit rate mode               : Variable
    Bit rate                    : 22.4 Mb/s
    Maximum bit rate            : 32.0 Mb/s
    Width                       : 1 920 pixels
    Height                      : 1 080 pixels
    Display aspect ratio        : 16:9
    Frame rate mode             : Constant
    Frame rate                  : 23.976 (24000/1001) FPS
    Color space                 : YUV
    Chroma subsampling          : 4:2:0
    Bit depth                   : 8 bits
    Scan type                   : Progressive
    Bits/(Pixel*Frame)          : 0.450
    Stream size                 : 20.3 GiB (82%)
    Title                       : REMUX 1080p [CinemaniaHDD]
    Default                     : Yes
    Forced                      : No

    Audio #1
    ID                          : 2
    Format                      : AC-3
    Format/Info                 : Audio Coding 3
    Commercial name             : Dolby Digital
    Codec ID                    : A_AC3
    Duration                    : 2 h 10 min
    Bit rate mode               : Constant
    Bit rate                    : 448 kb/s
    Channel(s)                  : 6 channels
    Channel layout              : L R C LFE Ls Rs
    Sampling rate               : 48.0 kHz
    Frame rate                  : 31.250 FPS (1536 SPF)
    Compression mode            : Lossy
    Stream size                 : 417 MiB (2%)
    Title                       : Español Latino [CinemaniaHDD]
    Language                    : Spanish
    Service kind                : Complete Main
    Default                     : Yes
    Forced                      : No

    Audio #2
    ID                          : 3
    Format                      : DTS XLL
    Format/Info                 : Digital Theater Systems
    Commercial name             : DTS-HD Master Audio
    Codec ID                    : A_DTS
    Duration                    : 2 h 10 min
    Bit rate mode               : Variable
    Bit rate                    : 4 328 kb/s
    Channel(s)                  : 6 channels
    Channel layout              : C L R Ls Rs LFE
    Sampling rate               : 48.0 kHz
    Frame rate                  : 93.750 FPS (512 SPF)
    Bit depth                   : 24 bits
    Compression mode            : Lossless
    Stream size                 : 3.93 GiB (16%)
    Title                       : Ingles [CinemaniaHDD]
    Language                    : English
    Default                     : No
    Forced                      : No

    Text #1
    ID                          : 4
    Format                      : PGS
    Muxing mode                 : zlib
    Codec ID                    : S_HDMV/PGS
    Codec ID/Info               : Picture based subtitle format used on BDs/HD-DVDs
    Duration                    : 2 h 7 min
    Bit rate                    : 502 b/s
    Count of elements           : 48
    Stream size                 : 470 KiB (0%)
    Title                       : Forzados-PGS [CinemaniaHDD]
    Language                    : Spanish
    Default                     : Yes
    Forced                      : No

    Text #2
    ID                          : 5
    Format                      : PGS
    Muxing mode                 : zlib
    Codec ID                    : S_HDMV/PGS
    Codec ID/Info               : Picture based subtitle format used on BDs/HD-DVDs
    Duration                    : 2 h 7 min
    Bit rate                    : 19.1 kb/s
    Count of elements           : 1747
    Stream size                 : 17.4 MiB (0%)
    Title                       : Español-PGS [CinemaniaHDD]
    Language                    : Spanish
    Default                     : No
    Forced                      : No

    Text #3
    ID                          : 6
    Format                      : PGS
    Muxing mode                 : zlib
    Codec ID                    : S_HDMV/PGS
    Codec ID/Info               : Picture based subtitle format used on BDs/HD-DVDs
    Duration                    : 2 h 6 min
    Bit rate                    : 20.8 kb/s
    Count of elements           : 1636
    Stream size                 : 18.9 MiB (0%)
    Title                       : Ingles-PGS [CinemaniaHDD]
    Language                    : English
    Default                     : No
    Forced                      : No

    Text #4
    ID                          : 7
    Format                      : UTF-8
    Codec ID                    : S_TEXT/UTF8
    Codec ID/Info               : UTF-8 Plain Text
    Duration                    : 2 h 7 min
    Bit rate                    : 0 b/s
    Count of elements           : 31
    Stream size                 : 790 Bytes (0%)
    Title                       : Forzados-SRT [CinemaniaHDD]
    Language                    : Spanish
    Default                     : No
    Forced                      : No

    Text #5
    ID                          : 8
    Format                      : UTF-8
    Codec ID                    : S_TEXT/UTF8
    Codec ID/Info               : UTF-8 Plain Text
    Duration                    : 2 h 3 min
    Bit rate                    : 31 b/s
    Count of elements           : 870
    Stream size                 : 28.8 KiB (0%)
    Title                       : Español-SRT [CinemaniaHDD]
    Language                    : Spanish
    Default                     : No
    Forced                      : No

    Menu
    00:00:00.000                : en:Opening Sequence
    00:10:29.963                : en:Main Titles
    00:13:20.133                : en:Aston Martin DB-5
    00:17:06.317                : en:Baccarat with Xenia
    00:24:23.379                : en:Test-Driving a Tiger
    00:27:56.091                : en:Boris and Natalya
    00:31:05.864                : en:Aiming GoldenEye
    00:36:24.057                : en:After Hours Briefing
    00:38:57.335                : en:Survivor
    00:43:19.430                : en:M Informs her Spy
    00:48:11.680                : en:St. Petersburg, Russia
    00:50:29.193                : en:Q's Latest Gadgets
    00:53:08.102                : en:Jake Wade
    00:56:08.073                : en:Computerized Warning
    00:57:47.005                : en:Getting Even
    01:03:42.027                : en:007 gets a grip
    01:06:16.055                : en:'Back from the Dead'
    01:11:04.969                : en:Trapped in the Tiger
    01:13:20.271                : en:Interrogation
    01:17:49.456                : en:Archives Ambush
    01:19:54.456                : en:All Tanked Up
    01:25:07.936                : en:Derailing Evil Plans
    01:30:50.612                : en:Escape
    01:34:26.160                : en:Wade drops in
    01:40:12.298                : en:Crashing in Cuba
    01:44:34.268                : en:Next Target: London
    01:47:31.445                : en:Stopping a Satellite
    01:50:41.343                : en:Philosophical Face-Off
    01:56:01.121                : en:Taking a breather
    02:00:53.705                : en:Spy versus Spy
    02:04:35.009                : en:Alone at Last
    02:06:33.002                : en:End Credits

  • Peso: 24.7 GiB

Sinopsis

Descargar James Bond: Goldeneye, El Regreso Del Agente 007 (1995) REMUX 1080p Latino. En sus vacaciones, el agente Bond se encuentra con la bella y letal Xenia Onatopp, que intenta hacerse con los planos de un nuevo helicóptero invulnerable a las interferencias. Mientras tanto la programadora del ejército ruso Natalya Siminova es la única superviviente de su equipo a un macabro plan del general Ourumov para hacerse con Goldeneye, un arma espacial ultrasecreta que emite pulsos nucleares que inutilizan cualquier equipo electrónico. Bond formará equipo con Natalya para descubrir a los malhechores tras el robo.

Ficha técnica

Video trailer de la película

Enlaces de descarga

Rip de Bluray

Descargar James Bond: Goldeneye, El Regreso Del Agente 007 (1995) REMUX 1080p Latino




Aportes de DPeliculasHDmega la pass es:dpeliculashdmega.org Aportes de CinemaniaHD la pass es:cinemaniahdd.com
Guardado en : Acción , Aventura , Remux , Suspenso

Películas relacionadas

  • Mi amigo el dragón (2016) Full HD 1080p Latino

    Mi amigo el dragón (2016) Full HD 1080p Latino

    2016
    Mi amigo el dragón (2016) Full HD 1080p Latino

    1h 43m 2016

    Descargar Mi amigo el dragón (2016) Full HD 1080p Latino. Durante años el Sr. Meacham, un viejo tallador...

    Director: Joe Nolan

    Género: Aventura

    Actores: William J. Rawbone

  • Mi amigo el dragón (2016) REMUX 1080p Latino

    Mi amigo el dragón (2016) REMUX 1080p Latino

    2016
    Mi amigo el dragón (2016) REMUX 1080p Latino

    1h 43m 2016

    Descargar Mi amigo el dragón (2016) REMUX 1080p Latino. Durante años el Sr. Meacham, un viejo tallador...

    Director: Joe Nolan

    Género: Aventura

    Actores: William J. Rawbone

  • El discurso del Rey (2010) REMUX 1080p Latino

    El discurso del Rey (2010) REMUX 1080p Latino

    2010
    El discurso del Rey (2010) REMUX 1080p Latino

    1h 58m 2010

    Descargar El discurso del Rey (2010) REMUX 1080p Latino. El duque de York se convirtió en rey de Gran...

    Director: Tom Hooper

    Género: Drama

    Actores: Tony Earnshaw

  • Lucy (2014) REMUX 4K HDR Latino – CMHDD

    Lucy (2014) REMUX 4K HDR Latino – CMHDD

    2014
    Lucy (2014) REMUX 4K HDR Latino – CMHDD

    1h 30m 2014

    Lucy, una joven obligada a ejercer de mula de una nueva y potente droga, adquiere de repente enormes...

    Director: Luc Besson

    Género: Acción

    Actores: Wolfgang Pissors

descargar James Bond: Goldeneye, El Regreso Del Agente 007 (1995) REMUX 1080p Latino Full 1080p 1080p gratis, James Bond: Goldeneye, El Regreso Del Agente 007 (1995) REMUX 1080p Latino Full 1080p mega 1 link, James Bond: Goldeneye, El Regreso Del Agente 007 (1995) REMUX 1080p Latino Full 1080p pelicula completa, descargar James Bond: Goldeneye, El Regreso Del Agente 007 (1995) REMUX 1080p Latino Full 1080p gratis en mega.

James Bond: Goldeneye, El Regreso Del Agente 007 (1995) REMUX 1080p Latino pelicula full hd, James Bond: Goldeneye, El Regreso Del Agente 007 (1995) REMUX 1080p Latino mega latino, James Bond: Goldeneye, El Regreso Del Agente 007 (1995) REMUX 1080p Latino 4k latino, James Bond: Goldeneye, El Regreso Del Agente 007 (1995) REMUX 1080p Latino pelicula completa, James Bond: Goldeneye, El Regreso Del Agente 007 (1995) REMUX 1080p Latino descargar gratis, descargar James Bond: Goldeneye, El Regreso Del Agente 007 (1995) REMUX 1080p Latino pelicula latino, James Bond: Goldeneye, El Regreso Del Agente 007 (1995) REMUX 1080p Latino 1 link mega, James Bond: Goldeneye, El Regreso Del Agente 007 (1995) REMUX 1080p Latino 1 link google drive, James Bond: Goldeneye, El Regreso Del Agente 007 (1995) REMUX 1080p Latino hd 1080p latino.
Comentarios 1
  • ocpgaiden - 15 junio, 2020

    Gracias por 007 goldeneye remux, saludos