×

¿Problemas para descargar con Mozilla, EDGE? Deshabilita la opción "Abrir vinculos en una pestaña nueva" tal como lo muestra ésta imagen.

James Bond: Goldeneye, El Regreso Del Agente 007 (1995) 1080p Latino

496 vistas

Información de James Bond: Goldeneye, El Regreso Del Agente 007 (1995) 1080p Latino

Datos de la película

  • Calidad: 1080p
  • Audio: Español Latino AC3 5.1 BLURAY - Ingles AC3 5.1 BLURAY
  • Subtitulos: Español Latino SRT - Ingles SRT
  • Resolución: 1920x818p
  • Formato: MKV
  • Codec: H.264
  • Encoder: CinefiloCool
  • Mediainfo: Clic para Mostrar Datos Ver
  • GoldenEye El Regreso Del Agente 007 (1995) 1080p Latino-CMHDD.mkv
    Format                      : Matroska
    Format version              : Version 4
    File size                   : 4.71 GiB
    Duration                    : 2 h 10 min
    Overall bit rate mode       : Variable
    Overall bit rate            : 5 185 kb/s
    Movie name                  : GoldenEye (1995) CinemaniaHDD.Net
    Encoded date                : UTC 2020-06-12 04:30:47
    Writing application         : mkvmerge v46.0.0 ('No Deeper Escape') 64-bit
    Writing library             : libebml v1.3.10 + libmatroska v1.5.2
    Attachments                 : CINEMANIAHD.png

    Video
    ID                          : 1
    Format                      : AVC
    Format/Info                 : Advanced Video Codec
    Format profile              : High@L4
    Format settings             : CABAC / 3 Ref Frames
    Format settings, CABAC      : Yes
    Format settings, Reference  : 3 frames
    Codec ID                    : V_MPEG4/ISO/AVC
    Duration                    : 2 h 10 min
    Bit rate mode               : Variable
    Bit rate                    : 4 096 kb/s
    Width                       : 1 920 pixels
    Height                      : 818 pixels
    Display aspect ratio        : 2.35:1
    Frame rate mode             : Constant
    Frame rate                  : 23.976 (24000/1001) FPS
    Color space                 : YUV
    Chroma subsampling          : 4:2:0
    Bit depth                   : 8 bits
    Scan type                   : Progressive
    Bits/(Pixel*Frame)          : 0.109
    Stream size                 : 3.72 GiB (79%)
    Title                       : HD1080p [CinemaniaHDD]
    Writing library             : x264 core 142 r2479 dd79a61
    Encoding settings           : cabac=1 / ref=3 / deblock=1:0:0 / analyse=0x3:0x113 / me=hex / subme=7 / psy=1 / psy_rd=1.00:0.00 / mixed_ref=1 / me_range=16 / chroma_me=1 / trellis=1 / 8x8dct=1 / cqm=0 / deadzone=21,11 / fast_pskip=1 / chroma_qp_offset=-2 / threads=6 / lookahead_threads=1 / sliced_threads=0 / nr=0 / decimate=1 / interlaced=0 / bluray_compat=0 / constrained_intra=0 / bframes=3 / b_pyramid=0 / b_adapt=1 / b_bias=0 / direct=1 / weightb=1 / open_gop=0 / weightp=2 / keyint=240 / keyint_min=24 / scenecut=40 / intra_refresh=0 / rc_lookahead=40 / rc=2pass / mbtree=1 / bitrate=4096 / ratetol=1.0 / qcomp=0.60 / qpmin=0 / qpmax=69 / qpstep=4 / cplxblur=20.0 / qblur=0.5 / vbv_maxrate=25000 / vbv_bufsize=25000 / nal_hrd=vbr / filler=0 / ip_ratio=1.40 / aq=1:1.00
    Default                     : Yes
    Forced                      : No

    Audio #1
    ID                          : 2
    Format                      : AC-3
    Format/Info                 : Audio Coding 3
    Commercial name             : Dolby Digital
    Codec ID                    : A_AC3
    Duration                    : 2 h 10 min
    Bit rate mode               : Constant
    Bit rate                    : 448 kb/s
    Channel(s)                  : 6 channels
    Channel layout              : L R C LFE Ls Rs
    Sampling rate               : 48.0 kHz
    Frame rate                  : 31.250 FPS (1536 SPF)
    Compression mode            : Lossy
    Stream size                 : 417 MiB (9%)
    Title                       : Español Latino [CinemaniaHDD]
    Language                    : Spanish
    Service kind                : Complete Main
    Default                     : Yes
    Forced                      : No

    Audio #2
    ID                          : 3
    Format                      : AC-3
    Format/Info                 : Audio Coding 3
    Commercial name             : Dolby Digital
    Codec ID                    : A_AC3
    Duration                    : 2 h 10 min
    Bit rate mode               : Constant
    Bit rate                    : 640 kb/s
    Channel(s)                  : 6 channels
    Channel layout              : L R C LFE Ls Rs
    Sampling rate               : 48.0 kHz
    Frame rate                  : 31.250 FPS (1536 SPF)
    Compression mode            : Lossy
    Stream size                 : 595 MiB (12%)
    Title                       : Ingles [CinemaniaHDD]
    Language                    : English
    Service kind                : Complete Main
    Default                     : No
    Forced                      : No

    Text #1
    ID                          : 4
    Format                      : UTF-8
    Codec ID                    : S_TEXT/UTF8
    Codec ID/Info               : UTF-8 Plain Text
    Duration                    : 2 h 7 min
    Bit rate                    : 0 b/s
    Count of elements           : 31
    Stream size                 : 790 Bytes (0%)
    Title                       : Forzados-SRT [CinemaniaHDD]
    Language                    : Spanish
    Default                     : Yes
    Forced                      : Yes

    Text #2
    ID                          : 5
    Format                      : UTF-8
    Codec ID                    : S_TEXT/UTF8
    Codec ID/Info               : UTF-8 Plain Text
    Duration                    : 2 h 3 min
    Bit rate                    : 31 b/s
    Count of elements           : 870
    Stream size                 : 28.8 KiB (0%)
    Title                       : Español-SRT [CinemaniaHDD]
    Language                    : Spanish
    Default                     : No
    Forced                      : No

    Text #3
    ID                          : 6
    Format                      : UTF-8
    Codec ID                    : S_TEXT/UTF8
    Codec ID/Info               : UTF-8 Plain Text
    Duration                    : 2 h 6 min
    Bit rate                    : 36 b/s
    Count of elements           : 892
    Stream size                 : 33.4 KiB (0%)
    Title                       : Ingles-SRT [CinemaniaHDD]
    Language                    : English
    Default                     : No
    Forced                      : No

    Menu
    00:00:00.000                : en:Opening Sequence
    00:10:29.963                : en:Main Titles
    00:13:20.133                : en:Aston Martin DB-5
    00:17:06.317                : en:Baccarat with Xenia
    00:24:23.379                : en:Test-Driving a Tiger
    00:27:56.091                : en:Boris and Natalya
    00:31:05.864                : en:Aiming GoldenEye
    00:36:24.057                : en:After Hours Briefing
    00:38:57.335                : en:Survivor
    00:43:19.430                : en:M Informs her Spy
    00:48:11.680                : en:St. Petersburg, Russia
    00:50:29.193                : en:Q's Latest Gadgets
    00:53:08.102                : en:Jake Wade
    00:56:08.073                : en:Computerized Warning
    00:57:47.005                : en:Getting Even
    01:03:42.027                : en:007 gets a grip
    01:06:16.055                : en:'Back from the Dead'
    01:11:04.969                : en:Trapped in the Tiger
    01:13:20.271                : en:Interrogation
    01:17:49.456                : en:Archives Ambush
    01:19:54.456                : en:All Tanked Up
    01:25:07.936                : en:Derailing Evil Plans
    01:30:50.612                : en:Escape
    01:34:26.160                : en:Wade drops in
    01:40:12.298                : en:Crashing in Cuba
    01:44:34.268                : en:Next Target: London
    01:47:31.445                : en:Stopping a Satellite
    01:50:41.343                : en:Philosophical Face-Off
    01:56:01.121                : en:Taking a breather
    02:00:53.705                : en:Spy versus Spy
    02:04:35.009                : en:Alone at Last
    02:06:33.002                : en:End Credits

  • Peso: 4.71 GiB

Sinopsis

Descargar James Bond: Goldeneye, El Regreso Del Agente 007 (1995) 1080p Latino. En sus vacaciones, el agente Bond se encuentra con la bella y letal Xenia Onatopp, que intenta hacerse con los planos de un nuevo helicóptero invulnerable a las interferencias. Mientras tanto la programadora del ejército ruso Natalya Siminova es la única superviviente de su equipo a un macabro plan del general Ourumov para hacerse con Goldeneye, un arma espacial ultrasecreta que emite pulsos nucleares que inutilizan cualquier equipo electrónico. Bond formará equipo con Natalya para descubrir a los malhechores tras el robo.

Ficha técnica

Video trailer de la película

Enlaces de descarga

Rip de Bluray

Descargar James Bond: Goldeneye, El Regreso Del Agente 007 (1995) 1080p Latino




Aportes de DPeliculasHDmega la pass es:dpeliculashdmega.org Aportes de CinemaniaHD la pass es:cinemaniahdd.com
Guardado en : Acción , Aventura , HD 1080p , Suspenso

Películas relacionadas

  • Wire Room (2022) HD 1080p Latino

    Wire Room (2022) HD 1080p Latino

    2022
    Wire Room (2022) HD 1080p Latino

    1h 37m 2022

    Descargar Wire Room (2022) HD 1080p Latino. Mientras está de servicio en la sala de cables, un agente...

    Director: Matt Eskandari

    Género: Acción

    Actores: Texas Battle

  • Wire Room (2022) PLACEBO Full HD 1080p Latino

    Wire Room (2022) PLACEBO Full HD 1080p Latino

    2022
    Wire Room (2022) PLACEBO Full HD 1080p Latino

    1h 37m 2022

    Descargar Wire Room (2022) PLACEBO Full HD 1080p Latino. Mientras está de servicio en la sala de cables,...

    Director: Matt Eskandari

    Género: Acción

    Actores: Texas Battle

  • Wire Room (2022) REMUX 1080p Latino

    Wire Room (2022) REMUX 1080p Latino

    2022
    Wire Room (2022) REMUX 1080p Latino

    1h 37m 2022

    Descargar Wire Room (2022) REMUX 1080p Latino. Mientras está de servicio en la sala de cables, un agente...

    Director: Matt Eskandari

    Género: Acción

    Actores: Texas Battle

  • Alarido (2022) HD 1080p Latino

    Alarido (2022) HD 1080p Latino

    2022
    Alarido (2022) HD 1080p Latino

    1h 29m 2022

    Descargar Alarido (2022) HD 1080p Latino. Una joven madre soltera es cautiva junto con sus dos hijos...

    Director: D.J. Caruso

    Género: HD 1080p

    Actores: Vincent Gallo

  • Alarido (2022) PLACEBO Full HD 1080p Latino

    Alarido (2022) PLACEBO Full HD 1080p Latino

    2022
    Alarido (2022) PLACEBO Full HD 1080p Latino

    1h 29m 2022

    Descargar Alarido (2022) PLACEBO Full HD 1080p Latino. Una joven madre soltera es cautiva junto con sus...

    Director: D.J. Caruso

    Género: FULL 1080p Plateadas

    Actores: Vincent Gallo

descargar James Bond: Goldeneye, El Regreso Del Agente 007 (1995) 1080p Latino 1080p 1080p gratis, James Bond: Goldeneye, El Regreso Del Agente 007 (1995) 1080p Latino 1080p mega 1 link, James Bond: Goldeneye, El Regreso Del Agente 007 (1995) 1080p Latino 1080p pelicula completa, descargar James Bond: Goldeneye, El Regreso Del Agente 007 (1995) 1080p Latino 1080p gratis en mega.

James Bond: Goldeneye, El Regreso Del Agente 007 (1995) 1080p Latino pelicula full hd, James Bond: Goldeneye, El Regreso Del Agente 007 (1995) 1080p Latino mega latino, James Bond: Goldeneye, El Regreso Del Agente 007 (1995) 1080p Latino 4k latino, James Bond: Goldeneye, El Regreso Del Agente 007 (1995) 1080p Latino pelicula completa, James Bond: Goldeneye, El Regreso Del Agente 007 (1995) 1080p Latino descargar gratis, descargar James Bond: Goldeneye, El Regreso Del Agente 007 (1995) 1080p Latino pelicula latino, James Bond: Goldeneye, El Regreso Del Agente 007 (1995) 1080p Latino 1 link mega, James Bond: Goldeneye, El Regreso Del Agente 007 (1995) 1080p Latino 1 link google drive, James Bond: Goldeneye, El Regreso Del Agente 007 (1995) 1080p Latino hd 1080p latino.
Comentarios 0