×

¿Problemas para descargar con Mozilla, EDGE? Deshabilita la opción "Abrir vinculos en una pestaña nueva" tal como lo muestra ésta imagen.

Golden Years (1991) Primera Temporada AMZN WEB-DL 576p Latino

119 vistas

Información de Golden Years (1991) Primera Temporada AMZN WEB-DL 576p Latino

Datos de la película

  • Calidad: 720p
  • Audio: Español Latino AC3 2.0 WEB-DL - Ingles AC3 2.0 WEB-DL
  • Subtitulos: Español Latino SRT- FORZADOS SRT
  • Resolución: 720x576
  • Formato: MKV
  • Codec: H.264
  • Encoder: cinemaniahdd
  • Mediainfo: Clic para Mostrar Datos Ver
  • Stephen Kings Golden Years T01E01 AMZN WEB-DL 576p Latino [CNMNHDD].mkv
    Format                      : Matroska
    Format version              : Version 4
    File size                   : 1.47 GiB
    Duration                    : 1 h 33 min
    Overall bit rate            : 2 242 kb/s
    Movie name                  : Stephen Kings Golden Years S01E01 - Time and Time Again [720p] - CinemaniaHDD.Net
    Encoded date                : UTC 2023-12-24 19:51:29
    Writing application         : mkvmerge v56.1.0 ('My Friend') 64-bit
    Writing library             : libebml v1.4.2 + libmatroska v1.6.4

    Video
    ID                          : 1
    Format                      : AVC
    Format/Info                 : Advanced Video Codec
    Format profile              : Main@L3.1
    Format settings             : CABAC / 5 Ref Frames
    Format settings, CABAC      : Yes
    Format settings, Reference  : 5 frames
    Codec ID                    : V_MPEG4/ISO/AVC
    Duration                    : 1 h 33 min
    Bit rate                    : 1 407 kb/s
    Width                       : 720 pixels
    Height                      : 576 pixels
    Display aspect ratio        : 4:3
    Frame rate mode             : Constant
    Frame rate                  : 29.970 (30000/1001) FPS
    Color space                 : YUV
    Chroma subsampling          : 4:2:0
    Bit depth                   : 8 bits
    Scan type                   : Progressive
    Bits/(Pixel*Frame)          : 0.113
    Stream size                 : 944 MiB (63%)
    Title                       : CinemaniaHDD
    Default                     : Yes
    Forced                      : No
    Color range                 : Limited
    Color primaries             : BT.709
    Transfer characteristics    : BT.709
    Matrix coefficients         : BT.709

    Audio #1
    ID                          : 2
    Format                      : AC-3
    Format/Info                 : Audio Coding 3
    Commercial name             : Dolby Digital
    Codec ID                    : A_AC3
    Duration                    : 1 h 33 min
    Bit rate mode               : Constant
    Bit rate                    : 384 kb/s
    Channel(s)                  : 2 channels
    Channel layout              : L R
    Sampling rate               : 48.0 kHz
    Frame rate                  : 31.250 FPS (1536 SPF)
    Compression mode            : Lossy
    Stream size                 : 257 MiB (17%)
    Title                       : Español Latino [CinemaniaHDD]
    Language                    : Spanish
    Service kind                : Complete Main
    Default                     : Yes
    Forced                      : No

    Audio #2
    ID                          : 3
    Format                      : E-AC-3
    Format/Info                 : Enhanced AC-3
    Commercial name             : Dolby Digital Plus
    Codec ID                    : A_EAC3
    Duration                    : 1 h 33 min
    Bit rate mode               : Constant
    Bit rate                    : 224 kb/s
    Channel(s)                  : 2 channels
    Channel layout              : L R
    Sampling rate               : 48.0 kHz
    Frame rate                  : 31.250 FPS (1536 SPF)
    Compression mode            : Lossy
    Stream size                 : 150 MiB (10%)
    Title                       : Español latino / E-AC3 [CinemaniaHDD]
    Language                    : Spanish
    Service kind                : Complete Main
    Default                     : No
    Forced                      : No

    Audio #3
    ID                          : 4
    Format                      : E-AC-3
    Format/Info                 : Enhanced AC-3
    Commercial name             : Dolby Digital Plus
    Codec ID                    : A_EAC3
    Duration                    : 1 h 33 min
    Bit rate mode               : Constant
    Bit rate                    : 224 kb/s
    Channel(s)                  : 2 channels
    Channel layout              : L R
    Sampling rate               : 48.0 kHz
    Frame rate                  : 31.250 FPS (1536 SPF)
    Compression mode            : Lossy
    Stream size                 : 150 MiB (10%)
    Title                       : Inglés [CinemaniaHDD]
    Language                    : English
    Service kind                : Complete Main
    Default                     : No
    Forced                      : No

    Text #1
    ID                          : 5
    Format                      : UTF-8
    Codec ID                    : S_TEXT/UTF8
    Codec ID/Info               : UTF-8 Plain Text
    Duration                    : 3 min 57 s
    Bit rate                    : 5 b/s
    Count of elements           : 5
    Stream size                 : 166 Bytes (0%)
    Title                       : Forzados [CinemaniaHDD]
    Language                    : Spanish
    Default                     : Yes
    Forced                      : Yes

    Text #2
    ID                          : 6
    Format                      : UTF-8
    Codec ID                    : S_TEXT/UTF8
    Codec ID/Info               : UTF-8 Plain Text
    Duration                    : 1 h 32 min
    Bit rate                    : 55 b/s
    Count of elements           : 1113
    Stream size                 : 37.5 KiB (0%)
    Title                       : Español Latino [CinemaniaHDD]
    Language                    : Spanish
    Default                     : No
    Forced                      : No

     

  • Peso: 1.47 GiB Aprox ---- 9 GiB in 7 Chapters.

Sinopsis

Cuando un conserje anciano es expuesto accidentalmente a extrañas sustancias químicas en una explosión en un laboratorio, sufre un cambio extraordinario. El gobierno hará lo que sea por aprender más de ese proceso, sin importar quién deba morir.

Ficha técnica

Video trailer de la película

Enlaces de descarga

Rip de Bluray

Descargar Golden Years (1991) Primera Temporada AMZN WEB-DL 576p Latino




Aportes de DPeliculasHDmega la pass es:dpeliculashdmega.org Aportes de CinemaniaHD la pass es:cinemaniahdd.com Aportes recientes:cinemaniahdd.net
Guardado en : Drama , Misterio , Sci-Fi & Fantasy , Series

Películas relacionadas

descargar Golden Years (1991) Primera Temporada AMZN WEB-DL 576p Latino 720p 1080p gratis, Golden Years (1991) Primera Temporada AMZN WEB-DL 576p Latino 720p mega 1 link, Golden Years (1991) Primera Temporada AMZN WEB-DL 576p Latino 720p serie completa, descargar Golden Years (1991) Primera Temporada AMZN WEB-DL 576p Latino 720p gratis en mega.

Golden Years (1991) Primera Temporada AMZN WEB-DL 576p Latino pelicula full hd, Golden Years (1991) Primera Temporada AMZN WEB-DL 576p Latino mega latino, Golden Years (1991) Primera Temporada AMZN WEB-DL 576p Latino 4k latino, Golden Years (1991) Primera Temporada AMZN WEB-DL 576p Latino pelicula completa, Golden Years (1991) Primera Temporada AMZN WEB-DL 576p Latino descargar gratis, descargar Golden Years (1991) Primera Temporada AMZN WEB-DL 576p Latino pelicula latino, Golden Years (1991) Primera Temporada AMZN WEB-DL 576p Latino 1 link mega, Golden Years (1991) Primera Temporada AMZN WEB-DL 576p Latino 1 link google drive, Golden Years (1991) Primera Temporada AMZN WEB-DL 576p Latino hd 1080p latino.
Comentarios 0