×

¿Problemas para descargar con Mozilla, EDGE? Deshabilita la opción "Abrir vinculos en una pestaña nueva" tal como lo muestra ésta imagen.

Godzilla x Kong The New Empire (2024) REMUX 4K HDR Latino – CMHDD

56 vistas

Información de Godzilla x Kong The New Empire (2024) REMUX 4K HDR Latino – CMHDD

Datos de la película

  • Calidad: 4K HDR
  • Audio: Español Latino AC3 5.1 BLURAY - Ingles AC3 5.1 BLURAY
  • Subtitulos: Español Latino PGS
  • Resolución: 3840x2160p
  • Formato:
  • Codec: H.264
  • Encoder: Dracarys
  • Mediainfo: Clic para Mostrar Datos Ver
  • Format                      : Matroska
    Format version              : Version 4
    File size                   : 61.9 GiB
    Duration                    : 1 h 54 min
    Overall bit rate mode       : Variable
    Overall bit rate            : 77.3 Mb/s
    Movie name                  : Godzilla x Kong: The New Empire (2024) REMUX 4K HDR Latino - CMHDD
    Encoded date                : UTC 2024-06-12 15:23:26
    Writing application         : mkvmerge v47.0.0 ('Black Flag') 64-bit
    Writing library             : libebml v1.3.10 + libmatroska v1.5.2

    Video
    ID                          : 1
    ID in the original source m : 4113 (0x1011)
    Format                      : HEVC
    Format/Info                 : High Efficiency Video Coding
    Format profile              : Main 10@L5.1@High
    HDR format                  : SMPTE ST 2086, HDR10 compatible
    Codec ID                    : V_MPEGH/ISO/HEVC
    Duration                    : 1 h 54 min
    Bit rate                    : 72.9 Mb/s
    Width                       : 3 840 pixels
    Height                      : 2 160 pixels
    Display aspect ratio        : 16:9
    Frame rate mode             : Constant
    Frame rate                  : 23.976 (24000/1001) FPS
    Color space                 : YUV
    Chroma subsampling          : 4:2:0 (Type 2)
    Bit depth                   : 10 bits
    Bits/(Pixel*Frame)          : 0.367
    Stream size                 : 58.4 GiB (94%)
    Default                     : Yes
    Forced                      : No
    Color range                 : Limited
    Color primaries             : BT.2020
    Transfer characteristics    : PQ
    Matrix coefficients         : BT.2020 non-constant
    Mastering display color pri : Display P3
    Mastering display luminance : min: 0.0001 cd/m2, max: 1000 cd/m2
    Maximum Content Light Level : 968 cd/m2
    Maximum Frame-Average Light : 457 cd/m2
    Original source medium      : Blu-ray

    Audio #1
    ID                          : 2
    Format                      : AC-3
    Format/Info                 : Audio Coding 3
    Commercial name             : Dolby Digital
    Codec ID                    : A_AC3
    Duration                    : 1 h 54 min
    Bit rate mode               : Constant
    Bit rate                    : 640 kb/s
    Channel(s)                  : 6 channels
    Channel layout              : L R C LFE Ls Rs
    Sampling rate               : 48.0 kHz
    Frame rate                  : 31.250 FPS (1536 SPF)
    Compression mode            : Lossy
    Stream size                 : 525 MiB (1%)
    Language                    : Spanish
    Service kind                : Complete Main
    Default                     : Yes
    Forced                      : Yes

    Audio #2
    ID                          : 3
    Format                      : AC-3
    Format/Info                 : Audio Coding 3
    Commercial name             : Dolby Digital
    Codec ID                    : A_AC3
    Duration                    : 1 h 54 min
    Bit rate mode               : Constant
    Bit rate                    : 640 kb/s
    Channel(s)                  : 6 channels
    Channel layout              : L R C LFE Ls Rs
    Sampling rate               : 48.0 kHz
    Frame rate                  : 31.250 FPS (1536 SPF)
    Compression mode            : Lossy
    Stream size                 : 525 MiB (1%)
    Language                    : English
    Service kind                : Complete Main
    Default                     : No
    Forced                      : No

    Audio #3
    ID                          : 4
    Format                      : MLP FBA 16-ch
    Format/Info                 : Meridian Lossless Packing FBA with 16-channel presentation
    Commercial name             : Dolby TrueHD with Dolby Atmos
    Codec ID                    : A_TRUEHD
    Duration                    : 1 h 54 min
    Bit rate mode               : Variable
    Bit rate                    : 3 038 kb/s
    Maximum bit rate            : 4 704 kb/s
    Channel(s)                  : 8 channels
    Channel layout              : L R C LFE Ls Rs Lb Rb
    Sampling rate               : 48.0 kHz
    Frame rate                  : 1 200.000 FPS (40 SPF)
    Compression mode            : Lossless
    Stream size                 : 2.43 GiB (4%)
    Language                    : English
    Default                     : No
    Forced                      : No
    Number of dynamic objects   : 11
    Bed channel count           : 1 channel
    Bed channel configuration   : LFE

    Text #1
    ID                          : 5
    Format                      : UTF-8
    Codec ID                    : S_TEXT/UTF8
    Codec ID/Info               : UTF-8 Plain Text
    Duration                    : 1 h 43 min
    Bit rate                    : 2 b/s
    Count of elements           : 86
    Stream size                 : 2.25 KiB (0%)
    Title                       : Forzados
    Language                    : Spanish
    Default                     : Yes
    Forced                      : Yes

    Text #2
    ID                          : 6
    Format                      : UTF-8
    Codec ID                    : S_TEXT/UTF8
    Codec ID/Info               : UTF-8 Plain Text
    Duration                    : 1 h 53 min
    Bit rate                    : 32 b/s
    Count of elements           : 776
    Stream size                 : 27.3 KiB (0%)
    Language                    : Spanish
    Default                     : No
    Forced                      : No

    Text #3
    ID                          : 7
    Format                      : PGS
    Muxing mode                 : zlib
    Codec ID                    : S_HDMV/PGS
    Codec ID/Info               : Picture based subtitle format used on BDs/HD-DVDs
    Duration                    : 1 h 53 min
    Bit rate                    : 20.1 kb/s
    Count of elements           : 1552
    Stream size                 : 16.3 MiB (0%)
    Title                       : Completos PGS
    Language                    : Spanish
    Default                     : No
    Forced                      : No

    Menu
    00:00:00.000                : en:Chapter 1
    00:09:36.367                : en:Chapter 2
    00:18:34.864                : en:Chapter 3
    00:30:42.966                : en:Chapter 4
    00:38:47.492                : en:Chapter 5
    00:49:01.939                : en:Chapter 6
    01:00:24.037                : en:Chapter 7
    01:10:13.835                : en:Chapter 8
    01:19:26.887                : en:Chapter 9
    01:28:07.699                : en:Chapter 10
    01:38:40.540                : en:Chapter 11
    01:46:38.726                : en:Chapter 12

     

  • Peso: 61.9 GiB

Sinopsis

Una aventura cinematográfica completamente nueva, que enfrentará al todopoderoso Kong y al temible Godzilla contra una colosal amenaza desconocida escondida dentro de nuestro mundo. La nueva y épica película profundizará en las historias de estos titanes, sus orígenes y los misterios de Isla Calavera y más allá, mientras descubre la batalla mítica que ayudó a forjar a estos seres extraordinarios y los unió a la humanidad para siempre.

Ficha técnica

Video trailer de la película

Enlaces de descarga

Rip de Bluray

Descargar Godzilla x Kong The New Empire (2024) REMUX 4K HDR Latino – CMHDD




Aportes de DPeliculasHDmega la pass es:dpeliculashdmega.org Aportes de CinemaniaHD la pass es:cinemaniahdd.com Aportes recientes:cinemaniahdd.net
Guardado en : Acción , Aventura , Ciencia ficción

Películas relacionadas

descargar Godzilla x Kong The New Empire (2024) REMUX 4K HDR Latino – CMHDD 4K HDR 1080p gratis, Godzilla x Kong The New Empire (2024) REMUX 4K HDR Latino – CMHDD 4K HDR mega 1 link, Godzilla x Kong The New Empire (2024) REMUX 4K HDR Latino – CMHDD 4K HDR pelicula completa, descargar Godzilla x Kong The New Empire (2024) REMUX 4K HDR Latino – CMHDD 4K HDR gratis en mega.

Godzilla x Kong The New Empire (2024) REMUX 4K HDR Latino – CMHDD pelicula full hd, Godzilla x Kong The New Empire (2024) REMUX 4K HDR Latino – CMHDD mega latino, Godzilla x Kong The New Empire (2024) REMUX 4K HDR Latino – CMHDD 4k latino, Godzilla x Kong The New Empire (2024) REMUX 4K HDR Latino – CMHDD pelicula completa, Godzilla x Kong The New Empire (2024) REMUX 4K HDR Latino – CMHDD descargar gratis, descargar Godzilla x Kong The New Empire (2024) REMUX 4K HDR Latino – CMHDD pelicula latino, Godzilla x Kong The New Empire (2024) REMUX 4K HDR Latino – CMHDD 1 link mega, Godzilla x Kong The New Empire (2024) REMUX 4K HDR Latino – CMHDD 1 link google drive, Godzilla x Kong The New Empire (2024) REMUX 4K HDR Latino – CMHDD hd 1080p latino.
Comentarios 0