×

¿Problemas para descargar con Mozilla, EDGE? Deshabilita la opción "Abrir vinculos en una pestaña nueva" tal como lo muestra ésta imagen.

Godzilla vs. Kong (2021) REMUX 4K HDR Latino – CMHDD

83 vistas

Información de Godzilla vs. Kong (2021) REMUX 4K HDR Latino – CMHDD

Datos de la película

  • Calidad: 4K HDR
  • Audio: Español Latino AC3 5.1 BLURAY - Ingles AC3 5.1 BLURAY
  • Subtitulos: Español Latino SRT- FORZADOS SRT
  • Resolución: 3840x2160p
  • Formato: MKV
  • Codec: H.264
  • Encoder: Dracarys
  • Mediainfo: Clic para Mostrar Datos Ver
  • Format                      : Matroska
    Format version              : Version 4
    File size                   : 44.7 GiB
    Duration                    : 1 h 53 min
    Overall bit rate mode       : Variable
    Overall bit rate            : 56.5 Mb/s
    Movie name                  : Godzilla vs. Kong (2021) REMUX 4K HDR Latino - CMHDD
    Encoded date                : UTC 2024-04-13 17:05:20
    Writing application         : mkvmerge v47.0.0 ('Black Flag') 64-bit
    Writing library             : libebml v1.3.10 + libmatroska v1.5.2

    Video
    ID                          : 1
    ID in the original source m : 4113 (0x1011)
    Format                      : HEVC
    Format/Info                 : High Efficiency Video Coding
    Format profile              : Main 10@L5.1@High
    HDR format                  : SMPTE ST 2094 App 4, Version 1, HDR10+ Profile B compatible
    Codec ID                    : V_MPEGH/ISO/HEVC
    Duration                    : 1 h 53 min
    Bit rate                    : 51.9 Mb/s
    Width                       : 3 840 pixels
    Height                      : 2 160 pixels
    Display aspect ratio        : 16:9
    Frame rate mode             : Constant
    Frame rate                  : 23.976 (24000/1001) FPS
    Color space                 : YUV
    Chroma subsampling          : 4:2:0 (Type 2)
    Bit depth                   : 10 bits
    Bits/(Pixel*Frame)          : 0.261
    Stream size                 : 41.0 GiB (92%)
    Language                    : English
    Default                     : No
    Forced                      : No
    Color range                 : Limited
    Color primaries             : BT.2020
    Transfer characteristics    : PQ
    Matrix coefficients         : BT.2020 non-constant
    Mastering display color pri : Display P3
    Mastering display luminance : min: 0.0001 cd/m2, max: 1000 cd/m2
    Maximum Content Light Level : 598 cd/m2
    Maximum Frame-Average Light : 273 cd/m2
    Original source medium      : Blu-ray

    Audio #1
    ID                          : 2
    Format                      : AC-3
    Format/Info                 : Audio Coding 3
    Commercial name             : Dolby Digital
    Codec ID                    : A_AC3
    Duration                    : 1 h 53 min
    Bit rate mode               : Constant
    Bit rate                    : 640 kb/s
    Channel(s)                  : 6 channels
    Channel layout              : L R C LFE Ls Rs
    Sampling rate               : 48.0 kHz
    Frame rate                  : 31.250 FPS (1536 SPF)
    Compression mode            : Lossy
    Stream size                 : 518 MiB (1%)
    Language                    : Spanish
    Service kind                : Complete Main
    Default                     : Yes
    Forced                      : Yes

    Audio #2
    ID                          : 3
    Format                      : AC-3
    Format/Info                 : Audio Coding 3
    Commercial name             : Dolby Digital
    Format settings             : Dolby Surround EX
    Codec ID                    : A_AC3
    Duration                    : 1 h 53 min
    Bit rate mode               : Constant
    Bit rate                    : 448 kb/s
    Channel(s)                  : 6 channels
    Channel layout              : L R C LFE Ls Rs
    Sampling rate               : 48.0 kHz
    Frame rate                  : 31.250 FPS (1536 SPF)
    Compression mode            : Lossy
    Stream size                 : 363 MiB (1%)
    Language                    : English
    Service kind                : Complete Main
    Default                     : No
    Forced                      : No

    Audio #3
    ID                          : 4
    Format                      : MLP FBA 16-ch
    Format/Info                 : Meridian Lossless Packing FBA with 16-channel presentation
    Commercial name             : Dolby TrueHD with Dolby Atmos
    Codec ID                    : A_TRUEHD
    Duration                    : 1 h 53 min
    Bit rate mode               : Variable
    Bit rate                    : 3 455 kb/s
    Maximum bit rate            : 5 742 kb/s
    Channel(s)                  : 8 channels
    Channel layout              : L R C LFE Ls Rs Lb Rb
    Sampling rate               : 48.0 kHz
    Frame rate                  : 1 200.000 FPS (40 SPF)
    Compression mode            : Lossless
    Stream size                 : 2.73 GiB (6%)
    Language                    : English
    Default                     : No
    Forced                      : No
    Number of dynamic objects   : 11
    Bed channel count           : 1 channel
    Bed channel configuration   : LFE

    Text #1
    ID                          : 5
    Format                      : UTF-8
    Codec ID                    : S_TEXT/UTF8
    Codec ID/Info               : UTF-8 Plain Text
    Duration                    : 1 h 44 min
    Bit rate                    : 1 b/s
    Frame rate                  : 0.008 FPS
    Count of elements           : 50
    Stream size                 : 815 Bytes (0%)
    Title                       : Forzados SRT
    Language                    : Spanish
    Default                     : Yes
    Forced                      : Yes

    Text #2
    ID                          : 6
    Format                      : UTF-8
    Codec ID                    : S_TEXT/UTF8
    Codec ID/Info               : UTF-8 Plain Text
    Duration                    : 1 h 44 min
    Bit rate                    : 40 b/s
    Frame rate                  : 0.166 FPS
    Count of elements           : 1038
    Stream size                 : 31.2 KiB (0%)
    Language                    : Spanish
    Default                     : No
    Forced                      : No

    Text #3
    ID                          : 7
    Format                      : PGS
    Muxing mode                 : zlib
    Codec ID                    : S_HDMV/PGS
    Codec ID/Info               : Picture based subtitle format used on BDs/HD-DVDs
    Duration                    : 1 h 41 min
    Bit rate                    : 665 b/s
    Frame rate                  : 0.016 FPS
    Count of elements           : 98
    Stream size                 : 494 KiB (0%)
    Title                       : Forzados PGS
    Language                    : Spanish
    Default                     : No
    Forced                      : No

    Text #4
    ID                          : 8
    Format                      : PGS
    Muxing mode                 : zlib
    Codec ID                    : S_HDMV/PGS
    Codec ID/Info               : Picture based subtitle format used on BDs/HD-DVDs
    Duration                    : 1 h 52 min
    Bit rate                    : 22.5 kb/s
    Frame rate                  : 0.262 FPS
    Count of elements           : 1764
    Stream size                 : 18.1 MiB (0%)
    Language                    : Spanish
    Default                     : No
    Forced                      : No

    Menu
    00:00:00.000                : en:Chapter 1
    00:09:51.591                : en:Chapter 2
    00:20:07.498                : en:Chapter 3
    00:29:02.366                : en:Chapter 4
    00:38:39.734                : en:Chapter 5
    00:49:15.995                : en:Chapter 6
    00:57:17.017                : en:Chapter 7
    01:09:07.977                : en:Chapter 8
    01:18:33.876                : en:Chapter 9
    01:30:06.109                : en:Chapter 10
    01:41:58.946                : en:Chapter 11

     

  • Peso: 44.7 GiB

Sinopsis

Godzilla y Kong, dos de las fuerzas más poderosas de un planeta habitado por todo tipo de aterradoras criaturas, se enfrentan en un espectacular combate que sacude los cimientos de la humanidad. Monarch (Kyle Chandler) se embarca en una misión de alto riesgo y pone rumbo hacia territorios inexplorados para descubrir los orígenes de estos dos titanes, en un último esfuerzo por tratar de salvar a dos bestias que parecen tener las horas contadas sobre la faz de la Tierra.

Ficha técnica

Video trailer de la película

Enlaces de descarga

Rip de Bluray

Descargar Godzilla vs. Kong (2021) REMUX 4K HDR Latino – CMHDD




Aportes de DPeliculasHDmega la pass es:dpeliculashdmega.org Aportes de CinemaniaHD la pass es:cinemaniahdd.com Aportes recientes:cinemaniahdd.net
Guardado en : Acción , Ciencia ficción , Suspenso

Películas relacionadas

  • Familia Nacional (2023) WEB-DL 1080p Latino

    Familia Nacional (2023) WEB-DL 1080p Latino

    2023
    Familia Nacional (2023) WEB-DL 1080p Latino

    1h 43m 2023

    Descargar Familia Nacional (2023) WEB-DL 1080p Latino. Don Poli es el patriarca de una familia disfuncional...

    Director: Marcelo Tobar

    Género: Acción

    Actores: Tadeo Tovar

  • Strictly Confidential (2024) WEB-DL 1080p Latino

    Strictly Confidential (2024) WEB-DL 1080p Latino

    2024
    Strictly Confidential (2024) WEB-DL 1080p Latino

    1h 28m 2024

    Descargar Strictly Confidential (2024) WEB-DL 1080p Latino. Una joven atormentada se ve atraída por...

    Director: Damian Hurley

    Género: Misterio

    Actores: Thomas Downey

  • La Otra Cara de Dorian (2023) WEB-DL 1080p Latino

    La Otra Cara de Dorian (2023) WEB-DL 1080p Latino

    2023
    La Otra Cara de Dorian (2023) WEB-DL 1080p Latino

    1h 40m 2023

    Descargar La Otra Cara de Dorian (2023) WEB-DL 1080p Latino. Una versión moderna del cuento de Oscar...

    Director: Richard John Taylor

    Género: Drama

    Actores: Triana Terry

descargar Godzilla vs. Kong (2021) REMUX 4K HDR Latino – CMHDD 4K HDR 1080p gratis, Godzilla vs. Kong (2021) REMUX 4K HDR Latino – CMHDD 4K HDR mega 1 link, Godzilla vs. Kong (2021) REMUX 4K HDR Latino – CMHDD 4K HDR pelicula completa, descargar Godzilla vs. Kong (2021) REMUX 4K HDR Latino – CMHDD 4K HDR gratis en mega.

Godzilla vs. Kong (2021) REMUX 4K HDR Latino – CMHDD pelicula full hd, Godzilla vs. Kong (2021) REMUX 4K HDR Latino – CMHDD mega latino, Godzilla vs. Kong (2021) REMUX 4K HDR Latino – CMHDD 4k latino, Godzilla vs. Kong (2021) REMUX 4K HDR Latino – CMHDD pelicula completa, Godzilla vs. Kong (2021) REMUX 4K HDR Latino – CMHDD descargar gratis, descargar Godzilla vs. Kong (2021) REMUX 4K HDR Latino – CMHDD pelicula latino, Godzilla vs. Kong (2021) REMUX 4K HDR Latino – CMHDD 1 link mega, Godzilla vs. Kong (2021) REMUX 4K HDR Latino – CMHDD 1 link google drive, Godzilla vs. Kong (2021) REMUX 4K HDR Latino – CMHDD hd 1080p latino.
Comentarios 0