×

¿Problemas para descargar con Mozilla, EDGE? Deshabilita la opción "Abrir vinculos en una pestaña nueva" tal como lo muestra ésta imagen.

Godzilla vs. Kong (2021) HMAX WEB-DL 1080p Latino

510 vistas

Información de Godzilla vs. Kong (2021) HMAX WEB-DL 1080p Latino

Datos de la película

  • Calidad: WEBDL
  • Audio: Español Latino AC3 5.1 WEB-DL - Ingles AC3 5.1 WEB-DL
  • Subtitulos: Español Latino SRT - Ingles SRT
  • Resolución: 1920x800
  • Formato: MKV
  • Codec: H.264
  • Encoder: cinemaniahdd
  • Mediainfo: Clic para Mostrar Datos Ver
  • Godzilla vs. Kong (2021) HMAX WEB-DL 1080p Latino [CNMNHDD].mkv
    Format                      : Matroska
    Format version              : Version 4
    File size                   : 7.42 GiB
    Duration                    : 1 h 53 min
    Overall bit rate mode       : Variable
    Overall bit rate            : 9 390 kb/s
    Movie name                  : Godzilla vs. Kong (2021)  - CinemaniaHDD.Net
    Encoded date                : UTC 2021-03-31 08:40:49
    Writing application         : mkvmerge v51.0.0 ('I Wish') 64-bit
    Writing library             : libebml v1.4.0 + libmatroska v1.6.2

    Video
    ID                          : 1
    Format                      : AVC
    Format/Info                 : Advanced Video Codec
    Format profile              : High@L4
    Format settings             : CABAC / 4 Ref Frames
    Format settings, CABAC      : Yes
    Format settings, Reference  : 4 frames
    Codec ID                    : V_MPEG4/ISO/AVC
    Duration                    : 1 h 53 min
    Bit rate mode               : Variable
    Bit rate                    : 8 250 kb/s
    Maximum bit rate            : 12.4 Mb/s
    Width                       : 1 920 pixels
    Height                      : 816 pixels
    Display aspect ratio        : 2.35:1
    Frame rate mode             : Constant
    Frame rate                  : 23.976 (24000/1001) FPS
    Color space                 : YUV
    Chroma subsampling          : 4:2:0
    Bit depth                   : 8 bits
    Scan type                   : Progressive
    Bits/(Pixel*Frame)          : 0.220
    Stream size                 : 6.51 GiB (88%)
    Title                       : CinemaniaHDD
    Writing library             : x264 core 157 r2965 861cec4
    Encoding settings           : cabac=1 / ref=4 / deblock=1:0:0 / analyse=0x3:0x113 / me=hex / subme=7 / psy=1 / psy_rd=1.00:0.00 / mixed_ref=1 / me_range=16 / chroma_me=1 / trellis=1 / 8x8dct=1 / cqm=0 / deadzone=21,11 / fast_pskip=1 / chroma_qp_offset=-2 / threads=25 / lookahead_threads=4 / sliced_threads=0 / nr=0 / decimate=1 / interlaced=0 / bluray_compat=0 / constrained_intra=0 / bframes=3 / b_pyramid=2 / b_adapt=1 / b_bias=0 / direct=1 / weightb=1 / open_gop=0 / weightp=2 / keyint=96 / keyint_min=96 / scenecut=40 / intra_refresh=0 / rc_lookahead=40 / rc=2pass / mbtree=1 / bitrate=8250 / ratetol=1.0 / qcomp=0.60 / qpmin=0 / qpmax=69 / qpstep=4 / cplxblur=20.0 / qblur=0.5 / vbv_maxrate=12375 / vbv_bufsize=6187 / nal_hrd=vbr / filler=0 / ip_ratio=1.40 / aq=1:1.00
    Language                    : Spanish
    Default                     : Yes
    Forced                      : No
    Color range                 : Limited
    Color primaries             : BT.709
    Transfer characteristics    : BT.709
    Matrix coefficients         : BT.709

    Audio #1
    ID                          : 2
    Format                      : AC-3
    Format/Info                 : Audio Coding 3
    Commercial name             : Dolby Digital
    Codec ID                    : A_AC3
    Duration                    : 1 h 53 min
    Bit rate mode               : Constant
    Bit rate                    : 384 kb/s
    Channel(s)                  : 6 channels
    Channel layout              : L R C LFE Ls Rs
    Sampling rate               : 48.0 kHz
    Frame rate                  : 31.250 FPS (1536 SPF)
    Compression mode            : Lossy
    Stream size                 : 311 MiB (4%)
    Title                       : Español latino [CinemaniaHDD]
    Language                    : Spanish
    Service kind                : Complete Main
    Default                     : Yes
    Forced                      : Yes

    Audio #2
    ID                          : 3
    Format                      : E-AC-3 JOC
    Format/Info                 : Enhanced AC-3 with Joint Object Coding
    Commercial name             : Dolby Digital Plus with Dolby Atmos
    Codec ID                    : A_EAC3
    Duration                    : 1 h 53 min
    Bit rate mode               : Constant
    Bit rate                    : 768 kb/s
    Channel(s)                  : 6 channels
    Channel layout              : L R C LFE Ls Rs
    Sampling rate               : 48.0 kHz
    Frame rate                  : 31.250 FPS (1536 SPF)
    Compression mode            : Lossy
    Stream size                 : 622 MiB (8%)
    Title                       : Inglés [CinemaniaHDD]
    Language                    : English
    Service kind                : Complete Main
    Default                     : No
    Forced                      : No
    Complexity index            : 16
    Number of dynamic objects   : 15
    Bed channel count           : 1 channel
    Bed channel configuration   : LFE

    Text #1
    ID                          : 4
    Format                      : UTF-8
    Codec ID                    : S_TEXT/UTF8
    Codec ID/Info               : UTF-8 Plain Text
    Duration                    : 1 h 52 min
    Bit rate                    : 47 b/s
    Count of elements           : 1540
    Stream size                 : 39.3 KiB (0%)
    Title                       : Español latino [CC] [CinemaniaHDD]
    Language                    : Spanish
    Default                     : No
    Forced                      : No

    Text #2
    ID                          : 5
    Format                      : UTF-8
    Codec ID                    : S_TEXT/UTF8
    Codec ID/Info               : UTF-8 Plain Text
    Duration                    : 1 h 52 min
    Bit rate                    : 51 b/s
    Count of elements           : 1646
    Stream size                 : 42.7 KiB (0%)
    Title                       : Inglés [CC] [CinemaniaHDD]
    Language                    : English
    Default                     : No
    Forced                      : No

     

  • Peso: 7.42 GiB

Sinopsis

Godzilla y Kong, dos de las fuerzas más poderosas de un planeta habitado por todo tipo de aterradoras criaturas, se enfrentan en un espectacular combate que sacude los cimientos de la humanidad. Monarch (Kyle Chandler) se embarca en una misión de alto riesgo y pone rumbo hacia territorios inexplorados para descubrir los orígenes de estos dos titanes, en un último esfuerzo por tratar de salvar a dos bestias que parecen tener las horas contadas sobre la faz de la Tierra.

Ficha técnica

Video trailer de la película

Enlaces de descarga

Rip de Bluray

Descargar Godzilla vs. Kong (2021) HMAX WEB-DL 1080p Latino




Aportes de DPeliculasHDmega la pass es:dpeliculashdmega.org Aportes de CinemaniaHD la pass es:cinemaniahdd.com
Guardado en : Acción , Ciencia ficción , HBOMAX

Películas relacionadas

descargar Godzilla vs. Kong (2021) HMAX WEB-DL 1080p Latino WEBDL 1080p gratis, Godzilla vs. Kong (2021) HMAX WEB-DL 1080p Latino WEBDL mega 1 link, Godzilla vs. Kong (2021) HMAX WEB-DL 1080p Latino WEBDL pelicula completa, descargar Godzilla vs. Kong (2021) HMAX WEB-DL 1080p Latino WEBDL gratis en mega.

Godzilla vs. Kong (2021) HMAX WEB-DL 1080p Latino pelicula full hd, Godzilla vs. Kong (2021) HMAX WEB-DL 1080p Latino mega latino, Godzilla vs. Kong (2021) HMAX WEB-DL 1080p Latino 4k latino, Godzilla vs. Kong (2021) HMAX WEB-DL 1080p Latino pelicula completa, Godzilla vs. Kong (2021) HMAX WEB-DL 1080p Latino descargar gratis, descargar Godzilla vs. Kong (2021) HMAX WEB-DL 1080p Latino pelicula latino, Godzilla vs. Kong (2021) HMAX WEB-DL 1080p Latino 1 link mega, Godzilla vs. Kong (2021) HMAX WEB-DL 1080p Latino 1 link google drive, Godzilla vs. Kong (2021) HMAX WEB-DL 1080p Latino hd 1080p latino.
Comentarios 3
  • Fredy14 - 26 abril, 2021

    ¡Excelente trabajo! Muchas gracias al equipo de CinemaniaHDD👍🎬😎

  • Pikmon - 01 abril, 2021

    Grasias por la película.

  • Black711 - 31 marzo, 2021

    Muchas Gracias por subir y compartir !!