×

¿Problemas para descargar con Mozilla, EDGE? Deshabilita la opción "Abrir vinculos en una pestaña nueva" tal como lo muestra ésta imagen.

Godzilla King of the Monsters (2019) REMUX 4K HDR Latino – CMHDD

343 vistas

Información de Godzilla King of the Monsters (2019) REMUX 4K HDR Latino – CMHDD

Datos de la película

  • Calidad: 4K HDR
  • Audio: Español Latino AC3 5.1 BLURAY - Ingles AC3 5.1 BLURAY
  • Subtitulos: Español Latino PGS
  • Resolución: 3840x2160p
  • Formato: MKV
  • Codec: HEVC
  • Encoder: Dracarys
  • Mediainfo: Clic para Mostrar Datos Ver
  • Format                      : Matroska
    Format version              : Version 4
    File size                   : 56.3 GiB
    Duration                    : 2 h 11 min
    Overall bit rate mode       : Variable
    Overall bit rate            : 61.2 Mb/s
    Movie name                  : Godzilla King of the Monsters (2019) REMUX 4K HDR Latino - CMHDD
    Encoded date                : UTC 2021-03-21 16:19:23
    Writing application         : mkvmerge v51.0.0 ('I Wish') 64-bit
    Writing library             : libebml v1.4.0 + libmatroska v1.6.2
    Cover                       : Yes
    Attachments                 : cover.jpg

    Video
    ID                          : 1
    ID in the original source m : 4113 (0x1011)
    Format                      : HEVC
    Format/Info                 : High Efficiency Video Coding
    Format profile              : Main 10@L5.1@High
    HDR format                  : SMPTE ST 2094 App 4, Version 1, HDR10+ Profile B compatible
    Codec ID                    : V_MPEGH/ISO/HEVC
    Duration                    : 2 h 11 min
    Bit rate                    : 56.4 Mb/s
    Width                       : 3 840 pixels
    Height                      : 2 160 pixels
    Display aspect ratio        : 16:9
    Frame rate mode             : Constant
    Frame rate                  : 23.976 (24000/1001) FPS
    Color space                 : YUV
    Chroma subsampling          : 4:2:0 (Type 2)
    Bit depth                   : 10 bits
    Bits/(Pixel*Frame)          : 0.284
    Stream size                 : 51.9 GiB (92%)
    Default                     : Yes
    Forced                      : No
    Color range                 : Limited
    Color primaries             : BT.2020
    Transfer characteristics    : PQ
    Matrix coefficients         : BT.2020 non-constant
    Mastering display color pri : Display P3
    Mastering display luminance : min: 0.0050 cd/m2, max: 4000 cd/m2
    Maximum Content Light Level : 1998 cd/m2
    Maximum Frame-Average Light : 414 cd/m2
    Original source medium      : Blu-ray

    Audio #1
    ID                          : 2
    ID in the original source m : 4356 (0x1104)
    Format                      : AC-3
    Format/Info                 : Audio Coding 3
    Commercial name             : Dolby Digital
    Codec ID                    : A_AC3
    Duration                    : 2 h 11 min
    Bit rate mode               : Constant
    Bit rate                    : 448 kb/s
    Channel(s)                  : 6 channels
    Channel layout              : L R C LFE Ls Rs
    Sampling rate               : 48.0 kHz
    Frame rate                  : 31.250 FPS (1536 SPF)
    Compression mode            : Lossy
    Stream size                 : 422 MiB (1%)
    Language                    : Spanish
    Service kind                : Complete Main
    Default                     : Yes
    Forced                      : No
    Original source medium      : Blu-ray

    Audio #2
    ID                          : 3
    ID in the original source m : 4352 (0x1100)
    Format                      : MLP FBA 16-ch
    Format/Info                 : Meridian Lossless Packing FBA with 16-channel presentation
    Commercial name             : Dolby TrueHD with Dolby Atmos
    Codec ID                    : A_TRUEHD
    Duration                    : 2 h 11 min
    Bit rate mode               : Variable
    Bit rate                    : 3 797 kb/s
    Maximum bit rate            : 6 537 kb/s
    Channel(s)                  : 8 channels
    Channel layout              : L R C LFE Ls Rs Lb Rb
    Sampling rate               : 48.0 kHz
    Frame rate                  : 1 200.000 FPS (40 SPF)
    Compression mode            : Lossless
    Stream size                 : 3.49 GiB (6%)
    Language                    : English
    Default                     : No
    Forced                      : No
    Original source medium      : Blu-ray
    Number of dynamic objects   : 15
    Bed channel count           : 1 channel
    Bed channel configuration   : LFE

    Audio #3
    ID                          : 4
    ID in the original source m : 4352 (0x1100)
    Format                      : AC-3
    Format/Info                 : Audio Coding 3
    Commercial name             : Dolby Digital
    Codec ID                    : A_AC3
    Duration                    : 2 h 11 min
    Bit rate mode               : Constant
    Bit rate                    : 448 kb/s
    Channel(s)                  : 6 channels
    Channel layout              : L R C LFE Ls Rs
    Sampling rate               : 48.0 kHz
    Frame rate                  : 31.250 FPS (1536 SPF)
    Compression mode            : Lossy
    Stream size                 : 422 MiB (1%)
    Language                    : English
    Service kind                : Complete Main
    Default                     : No
    Forced                      : No
    Original source medium      : Blu-ray

    Text
    ID                          : 5
    ID in the original source m : 4773 (0x12A5)
    Format                      : PGS
    Muxing mode                 : zlib
    Codec ID                    : S_HDMV/PGS
    Codec ID/Info               : Picture based subtitle format used on BDs/HD-DVDs
    Duration                    : 2 h 10 min
    Bit rate                    : 28.0 kb/s
    Count of elements           : 2784
    Stream size                 : 26.2 MiB (0%)
    Language                    : Spanish
    Default                     : No
    Forced                      : No
    Original source medium      : Blu-ray

    Menu
    00:00:00.000                : en:Chapter 01
    00:10:53.903                : en:Chapter 02
    00:18:06.835                : en:Chapter 03
    00:30:27.325                : en:Chapter 04
    00:45:18.632                : en:Chapter 05
    00:54:11.039                : en:Chapter 06
    01:05:41.646                : en:Chapter 07
    01:09:31.584                : en:Chapter 08
    01:19:31.308                : en:Chapter 09
    01:30:06.234                : en:Chapter 10
    01:38:36.869                : en:Chapter 11
    01:49:58.883                : en:Chapter 12
    01:59:28.828                : en:Chapter 13

  • Peso: 56.3 GiB

Sinopsis

Los criptozoólogos de la agencia Monarch se enfrentan a un grupo de enormes monstruos: Godzilla, Mothra, Rodan y el enemigo de la humanidad, King Ghidorah. Estas ancianas criaturas harán todo lo posible por sobrevivir, poniendo en riesgo la existencia del ser humano en el planeta.

Ficha técnica

Video trailer de la película

Enlaces de descarga

Rip de Bluray

Descargar Godzilla King of the Monsters (2019) REMUX 4K HDR Latino – CMHDD


Aportes de DPeliculasHDmega la pass es:dpeliculashdmega.org Aportes de CinemaniaHD la pass es:cinemaniahdd.com
Guardado en : Acción , Ciencia ficción

Películas relacionadas

descargar Godzilla King of the Monsters (2019) REMUX 4K HDR Latino – CMHDD 4K HDR 1080p gratis, Godzilla King of the Monsters (2019) REMUX 4K HDR Latino – CMHDD 4K HDR mega 1 link, Godzilla King of the Monsters (2019) REMUX 4K HDR Latino – CMHDD 4K HDR pelicula completa, descargar Godzilla King of the Monsters (2019) REMUX 4K HDR Latino – CMHDD 4K HDR gratis en mega.

Godzilla King of the Monsters (2019) REMUX 4K HDR Latino – CMHDD pelicula full hd, Godzilla King of the Monsters (2019) REMUX 4K HDR Latino – CMHDD mega latino, Godzilla King of the Monsters (2019) REMUX 4K HDR Latino – CMHDD 4k latino, Godzilla King of the Monsters (2019) REMUX 4K HDR Latino – CMHDD pelicula completa, Godzilla King of the Monsters (2019) REMUX 4K HDR Latino – CMHDD descargar gratis, descargar Godzilla King of the Monsters (2019) REMUX 4K HDR Latino – CMHDD pelicula latino, Godzilla King of the Monsters (2019) REMUX 4K HDR Latino – CMHDD 1 link mega, Godzilla King of the Monsters (2019) REMUX 4K HDR Latino – CMHDD 1 link google drive, Godzilla King of the Monsters (2019) REMUX 4K HDR Latino – CMHDD hd 1080p latino.
Comentarios 0