×

¿Problemas para descargar con Mozilla, EDGE? Deshabilita la opción "Abrir vinculos en una pestaña nueva" tal como lo muestra ésta imagen.

Godzilla II – El Rey De Los Monstruos (2019) 1080p Latino

3.684 vistas

Información de Godzilla II – El Rey De Los Monstruos (2019) 1080p Latino

Datos de la película

  • Calidad: 1080p
  • Audio: Español Latino AC3 5.1 BLURAY - Ingles AC3 5.1 BLURAY
  • Subtitulos: Español Latino SRT - Ingles SRT
  • Resolución: 1920x804p
  • Formato: MKV
  • Codec: H.264
  • Encoder: CinefiloCool
  • Mediainfo: Clic para Mostrar Datos Ver
  • Godzilla II - Rey De Los Monstruos (2019) 1080p Latino-CMHDD.mkv
    Format                      : Matroska
    Format version              : Version 4
    File size                   : 5.58 GiB
    Duration                    : 2 h 11 min
    Overall bit rate            : 6 065 kb/s
    Movie name                  : Godzilla - King of the Monsters (2019) CinemaniaHDD.Net
    Encoded date                : UTC 2021-03-29 00:48:36
    Writing application         : mkvmerge v51.0.0 ('I Wish') 64-bit
    Writing library             : libebml v1.4.0 + libmatroska v1.6.2
    Attachments                 : CINEMANIAHD.png

    Video
    ID                          : 1
    Format                      : AVC
    Format/Info                 : Advanced Video Codec
    Format profile              : High@L5
    Format settings             : CABAC / 8 Ref Frames
    Format settings, CABAC      : Yes
    Format settings, Reference  : 8 frames
    Codec ID                    : V_MPEG4/ISO/AVC
    Duration                    : 2 h 11 min
    Bit rate                    : 5 166 kb/s
    Width                       : 1 920 pixels
    Height                      : 804 pixels
    Display aspect ratio        : 2.40:1
    Frame rate mode             : Constant
    Frame rate                  : 23.976 (24000/1001) FPS
    Color space                 : YUV
    Chroma subsampling          : 4:2:0
    Bit depth                   : 8 bits
    Scan type                   : Progressive
    Bits/(Pixel*Frame)          : 0.140
    Stream size                 : 4.75 GiB (85%)
    Title                       : HD1080p [CinemaniaHDD]
    Writing library             : x264 core 158 r2984 3759fcb
    Encoding settings           : cabac=1 / ref=8 / deblock=1:-3:-3 / analyse=0x3:0x133 / me=umh / subme=11 / psy=1 / psy_rd=1.00:0.00 / mixed_ref=1 / me_range=24 / chroma_me=1 / trellis=2 / 8x8dct=1 / cqm=0 / deadzone=21,11 / fast_pskip=0 / chroma_qp_offset=-2 / threads=18 / lookahead_threads=2 / sliced_threads=0 / nr=0 / decimate=0 / interlaced=0 / bluray_compat=0 / constrained_intra=0 / bframes=8 / b_pyramid=2 / b_adapt=2 / b_bias=0 / direct=3 / weightb=1 / open_gop=0 / weightp=2 / keyint=250 / keyint_min=23 / scenecut=40 / intra_refresh=0 / rc_lookahead=60 / rc=crf / mbtree=1 / crf=21.0 / qcomp=0.60 / qpmin=0 / qpmax=29 / qpstep=4 / ip_ratio=1.40 / aq=1:1.00
    Default                     : Yes
    Forced                      : No

    Audio #1
    ID                          : 2
    Format                      : AC-3
    Format/Info                 : Audio Coding 3
    Commercial name             : Dolby Digital
    Codec ID                    : A_AC3
    Duration                    : 2 h 11 min
    Bit rate mode               : Constant
    Bit rate                    : 448 kb/s
    Channel(s)                  : 6 channels
    Channel layout              : L R C LFE Ls Rs
    Sampling rate               : 48.0 kHz
    Frame rate                  : 31.250 FPS (1536 SPF)
    Compression mode            : Lossy
    Stream size                 : 422 MiB (7%)
    Title                       : Español Latino [CinemaniaHDD]
    Language                    : Spanish
    Service kind                : Complete Main
    Default                     : Yes
    Forced                      : Yes

    Audio #2
    ID                          : 3
    Format                      : AC-3
    Format/Info                 : Audio Coding 3
    Commercial name             : Dolby Digital
    Codec ID                    : A_AC3
    Duration                    : 2 h 11 min
    Bit rate mode               : Constant
    Bit rate                    : 448 kb/s
    Channel(s)                  : 6 channels
    Channel layout              : L R C LFE Ls Rs
    Sampling rate               : 48.0 kHz
    Frame rate                  : 31.250 FPS (1536 SPF)
    Compression mode            : Lossy
    Stream size                 : 422 MiB (7%)
    Title                       : Ingles [CinemaniaHDD]
    Language                    : English
    Service kind                : Complete Main
    Default                     : No
    Forced                      : No

    Text #1
    ID                          : 4
    Format                      : UTF-8
    Codec ID                    : S_TEXT/UTF8
    Codec ID/Info               : UTF-8 Plain Text
    Duration                    : 2 h 0 min
    Bit rate                    : 2 b/s
    Count of elements           : 51
    Stream size                 : 2.09 KiB (0%)
    Title                       : Forzados-SRT [CinemaniaHDD]
    Language                    : Spanish
    Default                     : Yes
    Forced                      : Yes

    Text #2
    ID                          : 5
    Format                      : UTF-8
    Codec ID                    : S_TEXT/UTF8
    Codec ID/Info               : UTF-8 Plain Text
    Duration                    : 2 h 10 min
    Bit rate                    : 45 b/s
    Count of elements           : 1386
    Stream size                 : 43.8 KiB (0%)
    Title                       : Español-SRT [CinemaniaHDD]
    Language                    : Spanish
    Default                     : No
    Forced                      : No

    Text #3
    ID                          : 6
    Format                      : UTF-8
    Codec ID                    : S_TEXT/UTF8
    Codec ID/Info               : UTF-8 Plain Text
    Duration                    : 2 h 10 min
    Bit rate                    : 44 b/s
    Count of elements           : 1310
    Stream size                 : 42.6 KiB (0%)
    Title                       : Ingles-SRT [CinemaniaHDD]
    Language                    : English
    Default                     : No
    Forced                      : No

    Menu
    00:00:00.000                : en:Chapter 1
    00:10:53.903                : en:Chapter 2
    00:18:06.836                : en:Chapter 3
    00:30:27.325                : en:Chapter 4
    00:45:18.633                : en:Chapter 5
    00:54:11.039                : en:Chapter 6
    01:05:41.646                : en:Chapter 7
    01:09:31.584                : en:Chapter 8
    01:19:31.308                : en:Chapter 9
    01:30:06.234                : en:Chapter 10
    01:38:36.869                : en:Chapter 11
    01:49:58.884                : en:Chapter 12
    01:59:28.828                : en:Chapter 13

  • Peso: 5.58 GiB

Sinopsis

Descargar Godzilla II – El Rey De Los Monstruos (2019) 1080p Latino. Los criptozoólogos de la agencia Monarch se enfrentan a un grupo de enormes monstruos: Godzilla, Mothra, Rodan y el enemigo de la humanidad, King Ghidorah. Estas ancianas criaturas harán todo lo posible por sobrevivir, poniendo en riesgo la existencia del ser humano en el planeta.

RESUBIDA NUEVA VERSION!!!

Ficha técnica

Video trailer de la película

Enlaces de descarga

Rip de Bluray

Descargar Godzilla II – El Rey De Los Monstruos (2019) 1080p Latino




Aportes de DPeliculasHDmega la pass es:dpeliculashdmega.org Aportes de CinemaniaHD la pass es:cinemaniahdd.com
Guardado en : Acción , Ciencia ficción , HD 1080p
Etiquetado en :

Películas relacionadas

descargar Godzilla II – El Rey De Los Monstruos (2019) 1080p Latino 1080p 1080p gratis, Godzilla II – El Rey De Los Monstruos (2019) 1080p Latino 1080p mega 1 link, Godzilla II – El Rey De Los Monstruos (2019) 1080p Latino 1080p pelicula completa, descargar Godzilla II – El Rey De Los Monstruos (2019) 1080p Latino 1080p gratis en mega.

Godzilla II – El Rey De Los Monstruos (2019) 1080p Latino pelicula full hd, Godzilla II – El Rey De Los Monstruos (2019) 1080p Latino mega latino, Godzilla II – El Rey De Los Monstruos (2019) 1080p Latino 4k latino, Godzilla II – El Rey De Los Monstruos (2019) 1080p Latino pelicula completa, Godzilla II – El Rey De Los Monstruos (2019) 1080p Latino descargar gratis, descargar Godzilla II – El Rey De Los Monstruos (2019) 1080p Latino pelicula latino, Godzilla II – El Rey De Los Monstruos (2019) 1080p Latino 1 link mega, Godzilla II – El Rey De Los Monstruos (2019) 1080p Latino 1 link google drive, Godzilla II – El Rey De Los Monstruos (2019) 1080p Latino hd 1080p latino.
Comentarios 0