Godzilla II – El Rey De Los Monstruos (2019) Full HD 1080p Latino

4.752 vistas
1 estrella2 estrellas3 estrellas4 estrellas5 estrellas (14 votos, promedio: 3,64 de 5)
Cargando...

Información de Godzilla II – El Rey De Los Monstruos (2019) Full HD 1080p Latino

Datos de la película

  • Calidad: Full 1080p
  • Audio: Español Latino AC3 5.1 BLURAY - Ingles DTS 5.1 BLURAY
  • Subtitulos: Español Latino PGS - Ingles PGS
  • Resolución: 1920x1080p
  • Formato: MKV
  • Codec: H.264
  • Encoder: CinefiloCool
  • Mediainfo: Clic para Mostrar Datos Ver
  • Godzilla II - Rey De Los Monstruos (2019)  Full HD 1080p Latino-CMHDD.mkv
    Format                      : Matroska
    Format version              : Version 4
    File size                   : 9.80 GiB
    Duration                    : 2 h 11 min
    Overall bit rate            : 10.7 Mb/s
    Movie name                  : Godzilla: King of the Monsters (2019) CinemaniaHDD.Net
    Encoded date                : UTC 2019-08-20 00:05:28
    Writing application         : mkvmerge v35.0.0 ('All The Love In The World') 64-bit
    Writing library             : libebml v1.3.9 + libmatroska v1.5.2
    Attachments                 : CINEMANIAHD.png

    Video
    ID                          : 1
    Format                      : AVC
    Format/Info                 : Advanced Video Codec
    Format profile              : High@L4.1
    Format settings             : CABAC / 4 Ref Frames
    Format settings, CABAC      : Yes
    Format settings, ReFrames   : 4 frames
    Codec ID                    : V_MPEG4/ISO/AVC
    Duration                    : 2 h 11 min
    Bit rate                    : 8 678 kb/s
    Width                       : 1 920 pixels
    Height                      : 1 080 pixels
    Display aspect ratio        : 16:9
    Frame rate mode             : Constant
    Frame rate                  : 23.976 (24000/1001) FPS
    Color space                 : YUV
    Chroma subsampling          : 4:2:0
    Bit depth                   : 8 bits
    Scan type                   : Progressive
    Bits/(Pixel*Frame)          : 0.175
    Stream size                 : 7.98 GiB (81%)
    Title                       : Full HD1080p [Bluray]
    Writing library             : x264 core 157 r2935 545de2f
    Encoding settings           : cabac=1 / ref=4 / deblock=1:0:0 / analyse=0x3:0x133 / me=tesa / subme=11 / psy=1 / psy_rd=1.00:0.00 / mixed_ref=1 / me_range=24 / chroma_me=1 / trellis=2 / 8x8dct=1 / cqm=0 / deadzone=21,11 / fast_pskip=0 / chroma_qp_offset=-2 / threads=34 / lookahead_threads=8 / sliced_threads=0 / nr=0 / decimate=1 / interlaced=0 / bluray_compat=0 / constrained_intra=0 / bframes=16 / b_pyramid=2 / b_adapt=2 / b_bias=0 / direct=3 / weightb=1 / open_gop=0 / weightp=2 / keyint=240 / keyint_min=24 / scenecut=40 / intra_refresh=0 / rc_lookahead=60 / rc=crf / mbtree=1 / crf=19.0 / qcomp=0.60 / qpmin=0 / qpmax=69 / qpstep=4 / vbv_maxrate=62500 / vbv_bufsize=78125 / crf_max=0.0 / nal_hrd=none / filler=0 / ip_ratio=1.40 / aq=1:1.00
    Default                     : Yes
    Forced                      : No
    Color range                 : Limited
    Color primaries             : BT.709
    Transfer characteristics    : BT.709
    Matrix coefficients         : BT.709

    Audio #1
    ID                          : 2
    Format                      : AC-3
    Format/Info                 : Audio Coding 3
    Commercial name             : Dolby Digital
    Codec ID                    : A_AC3
    Duration                    : 2 h 11 min
    Bit rate mode               : Constant
    Bit rate                    : 448 kb/s
    Channel(s)                  : 6 channels
    Channel layout              : L R C LFE Ls Rs
    Sampling rate               : 48.0 kHz
    Frame rate                  : 31.250 FPS (1536 SPF)
    Bit depth                   : 16 bits
    Compression mode            : Lossy
    Stream size                 : 422 MiB (4%)
    Title                       : AC3_5.1_Bluray_Esp
    Language                    : Spanish
    Service kind                : Complete Main
    Default                     : Yes
    Forced                      : Yes

    Audio #2
    ID                          : 3
    Format                      : DTS
    Format/Info                 : Digital Theater Systems
    Codec ID                    : A_DTS
    Duration                    : 2 h 11 min
    Bit rate mode               : Constant
    Bit rate                    : 1 509 kb/s
    Channel(s)                  : 6 channels
    Channel layout              : C L R Ls Rs LFE
    Sampling rate               : 48.0 kHz
    Frame rate                  : 93.750 FPS (512 SPF)
    Bit depth                   : 24 bits
    Compression mode            : Lossy
    Stream size                 : 1.39 GiB (14%)
    Title                       : DTS_5.1_Bluray_Eng
    Language                    : English
    Default                     : No
    Forced                      : No

    Text #1
    ID                          : 4
    Format                      : PGS
    Muxing mode                 : zlib
    Codec ID                    : S_HDMV/PGS
    Codec ID/Info               : Picture based subtitle format used on BDs/HD-DVDs
    Duration                    : 2 h 10 min
    Bit rate                    : 28.0 kb/s
    Count of elements           : 2784
    Stream size                 : 26.2 MiB (0%)
    Title                       : Sub_Esp [PGS]
    Language                    : Spanish
    Default                     : No
    Forced                      : No

    Text #2
    ID                          : 5
    Format                      : PGS
    Muxing mode                 : zlib
    Codec ID                    : S_HDMV/PGS
    Codec ID/Info               : Picture based subtitle format used on BDs/HD-DVDs
    Duration                    : 2 h 11 min
    Bit rate                    : 33.0 kb/s
    Count of elements           : 3322
    Stream size                 : 31.0 MiB (0%)
    Title                       : Sub_Eng [PGS]
    Language                    : English
    Default                     : No
    Forced                      : No

    Text #3
    ID                          : 6
    Format                      : UTF-8
    Codec ID                    : S_TEXT/UTF8
    Codec ID/Info               : UTF-8 Plain Text
    Duration                    : 2 h 0 min
    Bit rate                    : 2 b/s
    Count of elements           : 51
    Stream size                 : 2.09 KiB (0%)
    Title                       : Sub_Forzados
    Language                    : Spanish
    Default                     : Yes
    Forced                      : Yes

    Text #4
    ID                          : 7
    Format                      : UTF-8
    Codec ID                    : S_TEXT/UTF8
    Codec ID/Info               : UTF-8 Plain Text
    Duration                    : 2 h 10 min
    Bit rate                    : 45 b/s
    Count of elements           : 1386
    Stream size                 : 43.8 KiB (0%)
    Title                       : Sub_Esp
    Language                    : Spanish
    Default                     : No
    Forced                      : No

    Menu
    00:00:00.000                : :Chapter 1
    00:10:53.903                : :Chapter 2
    00:18:06.836                : :Chapter 3
    00:30:27.326                : :Chapter 4
    00:45:18.716                : :Chapter 5
    00:54:11.039                : :Chapter 6
    01:05:41.646                : :Chapter 7
    01:09:31.584                : :Chapter 8
    01:19:31.308                : :Chapter 9
    01:30:06.234                : :Chapter 10
    01:38:36.869                : :Chapter 11
    01:49:58.884                : :Chapter 12
    01:59:28.828                : :Chapter 13

  • Peso: 9.80 GiB

Sinopsis

Descargar Godzilla II – El Rey De Los Monstruos (2019) Full HD 1080p Latino. Los criptozoólogos de la agencia Monarch se enfrentan a un grupo de enormes monstruos: Godzilla, Mothra, Rodan y el enemigo de la humanidad, King Ghidorah. Estas ancianas criaturas harán todo lo posible por sobrevivir, poniendo en riesgo la existencia del ser humano en el planeta.

MISMA VERSION PLACEBO, LINKS ACTUALIZADOS!!!

Ficha técnica

Video trailer de la película

Enlaces de descarga

Rip de Bluray

Descargar Godzilla II – El Rey De Los Monstruos (2019) Full HD 1080p Latino




Aportes de DPeliculasHDmega la pass es:dpeliculashdmega.org Aportes de CinemaniaHD la pass es:cinemaniahdd.com

Películas relacionadas

  • La chica de rosa (1986) Full HD 1080p Latino

    La chica de rosa (1986) Full HD 1080p Latino

    1986
    La chica de rosa (1986) Full HD 1080p Latino

    0.0 1h 36m 1986

    Descargar La chica de rosa (1986) Full HD 1080p Latino. Andie Walsh (Molly Ringwald), una buena estudiante...

    Director: Pamela Alch

    Género: Comedia

    Actores: Molly Ringwald

  • Escucha tu destino (2007) Full HD 1080p Latino

    Escucha tu destino (2007) Full HD 1080p Latino

    2007
    Escucha tu destino (2007) Full HD 1080p Latino

    0.0 1h 53m 2007

    Descargar Escucha tu destino (2007) Full HD 1080p Latino. Un joven guitarrista irlandés (Jonathan Rhys...

    Director: Kirsten Sheridan

    Género: Drama

    Actores: Zach Page

  • The Adjustment Bureau (2011) REMUX 1080p Latino – CMHDD

    The Adjustment Bureau (2011) REMUX 1080p Latino – CMHDD

    2011
    The Adjustment Bureau (2011) REMUX 1080p Latino – CMHDD

    0.0 1h 46m 2011

    El carismático político David Norris está a punto de ser elegido senador cuando conoce a la preciosa...

    Director: Steve Apicella

    Género: Ciencia ficción

    Actores: Wayne Scott Miller

Godzilla II – El Rey De Los Monstruos (2019) Full HD 1080p Latino pelicula full hd, Godzilla II – El Rey De Los Monstruos (2019) Full HD 1080p Latino mega latino, Godzilla II – El Rey De Los Monstruos (2019) Full HD 1080p Latino 4k latino, Godzilla II – El Rey De Los Monstruos (2019) Full HD 1080p Latino pelicula completa, Godzilla II – El Rey De Los Monstruos (2019) Full HD 1080p Latino descargar gratis, descargar Godzilla II – El Rey De Los Monstruos (2019) Full HD 1080p Latino pelicula latino, Godzilla II – El Rey De Los Monstruos (2019) Full HD 1080p Latino 1 link mega, Godzilla II – El Rey De Los Monstruos (2019) Full HD 1080p Latino 1 link google drive, Godzilla II – El Rey De Los Monstruos (2019) Full HD 1080p Latino hd 1080p latino.
Comentarios 0