×

¿Problemas para descargar con Mozilla, EDGE? Deshabilita la opción "Abrir vinculos en una pestaña nueva" tal como lo muestra ésta imagen.

Godzilla (1998) REMUX 4K HDR Latino – CMHDD

575 vistas

Información de Godzilla (1998) REMUX 4K HDR Latino – CMHDD

Datos de la película

  • Calidad: 4K HDR
  • Audio: Español Latino AC3 5.1 BLURAY - Ingles DTS 5.1 BLURAY
  • Subtitulos: Español Latino PGS
  • Resolución: 3840x2160p
  • Formato: MKV
  • Codec: HEVC
  • Encoder: Dracarys
  • Mediainfo: Clic para Mostrar Datos Ver
  • Format                      : Matroska
    Format version              : Version 4
    File size                   : 56.4 GiB
    Duration                    : 2 h 18 min
    Overall bit rate mode       : Variable
    Overall bit rate            : 58.2 Mb/s
    Movie name                  : Godzilla (1998) REMUX 4K HDR Latino - CMHDD
    Encoded date                : UTC 2021-03-21 04:35:08
    Writing application         : mkvmerge v51.0.0 ('I Wish') 64-bit
    Writing library             : libebml v1.4.0 + libmatroska v1.6.2
    Cover                       : Yes
    Attachments                 : cover.jpg

    Video
    ID                          : 1
    ID in the original source m : 4113 (0x1011)
    Format                      : HEVC
    Format/Info                 : High Efficiency Video Coding
    Format profile              : Main 10@L5.1@High
    HDR format                  : SMPTE ST 2086, HDR10 compatible
    Codec ID                    : V_MPEGH/ISO/HEVC
    Duration                    : 2 h 18 min
    Bit rate                    : 50.0 Mb/s
    Width                       : 3 840 pixels
    Height                      : 2 160 pixels
    Display aspect ratio        : 16:9
    Frame rate mode             : Constant
    Frame rate                  : 23.976 (24000/1001) FPS
    Color space                 : YUV
    Chroma subsampling          : 4:2:0 (Type 2)
    Bit depth                   : 10 bits
    Bits/(Pixel*Frame)          : 0.252
    Stream size                 : 48.5 GiB (86%)
    Default                     : Yes
    Forced                      : No
    Color range                 : Limited
    Color primaries             : BT.2020
    Transfer characteristics    : PQ
    Matrix coefficients         : BT.2020 non-constant
    Mastering display color pri : Display P3
    Mastering display luminance : min: 0.0050 cd/m2, max: 4000 cd/m2
    Maximum Content Light Level : 10000 cd/m2
    Maximum Frame-Average Light : 768 cd/m2
    Original source medium      : Blu-ray

    Audio #1
    ID                          : 2
    ID in the original source m : 4365 (0x110D)
    Format                      : AC-3
    Format/Info                 : Audio Coding 3
    Commercial name             : Dolby Digital
    Codec ID                    : A_AC3
    Duration                    : 2 h 18 min
    Bit rate mode               : Constant
    Bit rate                    : 640 kb/s
    Channel(s)                  : 6 channels
    Channel layout              : L R C LFE Ls Rs
    Sampling rate               : 48.0 kHz
    Frame rate                  : 31.250 FPS (1536 SPF)
    Compression mode            : Lossy
    Stream size                 : 635 MiB (1%)
    Language                    : Spanish
    Service kind                : Complete Main
    Default                     : Yes
    Forced                      : No
    Original source medium      : Blu-ray

    Audio #2
    ID                          : 3
    ID in the original source m : 4352 (0x1100)
    Format                      : MLP FBA 16-ch
    Format/Info                 : Meridian Lossless Packing FBA with 16-channel presentation
    Commercial name             : Dolby TrueHD with Dolby Atmos
    Codec ID                    : A_TRUEHD
    Duration                    : 2 h 18 min
    Bit rate mode               : Variable
    Bit rate                    : 4 138 kb/s
    Maximum bit rate            : 6 384 kb/s
    Channel(s)                  : 8 channels
    Channel layout              : L R C LFE Ls Rs Lb Rb
    Sampling rate               : 48.0 kHz
    Frame rate                  : 1 200.000 FPS (40 SPF)
    Compression mode            : Lossless
    Stream size                 : 4.01 GiB (7%)
    Language                    : English
    Default                     : No
    Forced                      : No
    Original source medium      : Blu-ray
    Number of dynamic objects   : 11
    Bed channel count           : 1 channel
    Bed channel configuration   : LFE

    Audio #3
    ID                          : 4
    ID in the original source m : 4352 (0x1100)
    Format                      : AC-3
    Format/Info                 : Audio Coding 3
    Commercial name             : Dolby Digital
    Codec ID                    : A_AC3
    Duration                    : 2 h 18 min
    Bit rate mode               : Constant
    Bit rate                    : 640 kb/s
    Channel(s)                  : 6 channels
    Channel layout              : L R C LFE Ls Rs
    Sampling rate               : 48.0 kHz
    Frame rate                  : 31.250 FPS (1536 SPF)
    Compression mode            : Lossy
    Stream size                 : 635 MiB (1%)
    Language                    : English
    Service kind                : Complete Main
    Default                     : No
    Forced                      : No
    Original source medium      : Blu-ray

    Audio #4
    ID                          : 5
    ID in the original source m : 4353 (0x1101)
    Format                      : DTS XLL
    Format/Info                 : Digital Theater Systems
    Commercial name             : DTS-HD Master Audio
    Codec ID                    : A_DTS
    Duration                    : 2 h 18 min
    Bit rate mode               : Variable
    Bit rate                    : 2 665 kb/s
    Channel(s)                  : 6 channels
    Channel layout              : C L R Ls Rs LFE
    Sampling rate               : 48.0 kHz
    Frame rate                  : 93.750 FPS (512 SPF)
    Bit depth                   : 16 bits
    Compression mode            : Lossless
    Stream size                 : 2.58 GiB (5%)
    Language                    : English
    Default                     : No
    Forced                      : No
    Original source medium      : Blu-ray

    Text
    ID                          : 6
    ID in the original source m : 4795 (0x12BB)
    Format                      : PGS
    Muxing mode                 : zlib
    Codec ID                    : S_HDMV/PGS
    Codec ID/Info               : Picture based subtitle format used on BDs/HD-DVDs
    Duration                    : 2 h 8 min
    Bit rate                    : 23.4 kb/s
    Count of elements           : 2536
    Stream size                 : 21.5 MiB (0%)
    Language                    : Spanish
    Default                     : No
    Forced                      : No
    Original source medium      : Blu-ray

    Menu
    00:00:00.000                : en:Chapter 01
    00:07:48.426                : en:Chapter 02
    00:17:25.461                : en:Chapter 03
    00:25:28.235                : en:Chapter 04
    00:36:53.836                : en:Chapter 05
    00:41:48.214                : en:Chapter 06
    00:48:19.730                : en:Chapter 07
    01:01:35.942                : en:Chapter 08
    01:11:06.095                : en:Chapter 09
    01:21:38.685                : en:Chapter 10
    01:30:26.212                : en:Chapter 11
    01:39:14.156                : en:Chapter 12
    01:50:24.159                : en:Chapter 13
    01:52:28.658                : en:Chapter 14
    02:00:36.771                : en:Chapter 15
    02:05:56.882                : en:Chapter 16

  • Peso: 56.4 GiB

Sinopsis

Las pruebas nucleares realizadas por los franceses en el Pacífico originan la aparición en el océano de un reptil mutante, de enormes dimensiones, localizado tras el ataque a un barco pescador japonés. Sin embargo, la criatura no se va a limitar a vivir en el agua: Godzilla se dirige con rumbo fijo a Nueva York, en cuyas calles causará el pánico.

Ficha técnica

Video trailer de la película

Enlaces de descarga

Rip de Bluray

Descargar Godzilla (1998) REMUX 4K HDR Latino – CMHDD


Aportes de DPeliculasHDmega la pass es:dpeliculashdmega.org Aportes de CinemaniaHD la pass es:cinemaniahdd.com Aportes recientes:cinemaniahdd.net
Guardado en : Acción , Ciencia ficción , Suspenso

Películas relacionadas

  • Los infalibles (2024) AMZN WEB-DL 1080p Latino

    Los infalibles (2024) AMZN WEB-DL 1080p Latino

    2024
    Los infalibles (2024) AMZN WEB-DL 1080p Latino

    1h 39m 2024

    Cuando un grupo de ladrones provoca el caos en París y ridiculiza a la policía, el Ministro del Interior...

    Director: Frédéric Forestier

    Género: Acción

    Actores: Vincent Rottiers

  • El Ministerio de la Guerra (2024) HD 1080p Latino

    El Ministerio de la Guerra (2024) HD 1080p Latino

    2024
    El Ministerio de la Guerra (2024) HD 1080p Latino

    2h 0m 2024

    Descargar El Ministerio de la Guerra (2024) HD 1080p Latino.  El ejército británico recluta a un pequeño...

    Director: Guy Ritchie

    Género: Acción

    Actores: Til Schweiger

  • V for Vendetta (2005) REMUX 4K HDR Latino – CMHDD

    V for Vendetta (2005) REMUX 4K HDR Latino – CMHDD

    2006
    V for Vendetta (2005) REMUX 4K HDR Latino – CMHDD

    2h 12m 2006

    En un futuro no muy lejano, Gran Bretaña es un país totalitario dirigido con mano de hierro por un...

    Director: Tobias Asam

    Género: Acción

    Actores: Wolfgang Stegemann

descargar Godzilla (1998) REMUX 4K HDR Latino – CMHDD 4K HDR 1080p gratis, Godzilla (1998) REMUX 4K HDR Latino – CMHDD 4K HDR mega 1 link, Godzilla (1998) REMUX 4K HDR Latino – CMHDD 4K HDR pelicula completa, descargar Godzilla (1998) REMUX 4K HDR Latino – CMHDD 4K HDR gratis en mega.

Godzilla (1998) REMUX 4K HDR Latino – CMHDD pelicula full hd, Godzilla (1998) REMUX 4K HDR Latino – CMHDD mega latino, Godzilla (1998) REMUX 4K HDR Latino – CMHDD 4k latino, Godzilla (1998) REMUX 4K HDR Latino – CMHDD pelicula completa, Godzilla (1998) REMUX 4K HDR Latino – CMHDD descargar gratis, descargar Godzilla (1998) REMUX 4K HDR Latino – CMHDD pelicula latino, Godzilla (1998) REMUX 4K HDR Latino – CMHDD 1 link mega, Godzilla (1998) REMUX 4K HDR Latino – CMHDD 1 link google drive, Godzilla (1998) REMUX 4K HDR Latino – CMHDD hd 1080p latino.
Comentarios 2