×

¿Problemas para descargar con Mozilla, EDGE? Deshabilita la opción "Abrir vinculos en una pestaña nueva" tal como lo muestra ésta imagen.

Godzilla (1998) 4K UHD HDR Latino

2.118 vistas

Información de Godzilla (1998) 4K UHD HDR Latino

godzilla 53957 poster

Datos de la película

  • Calidad: 4K HDR
  • Audio: Español Latino AC3 5.1 BLURAY - Ingles AC3 5.1 BLURAY
  • Subtitulos: Español Latino PGS - Ingles PGS
  • Resolución: 3840x1600p
  • Formato: MKV
  • Codec: HEVC
  • Encoder: CinefiloCool
  • Mediainfo: Clic para Mostrar Datos Ver
  • Godzilla (1998) UHD HDR Latino.mkv
    Format                      : Matroska
    Format version              : Version 4
    File size                   : 22.6 GiB
    Duration                    : 2 h 18 min
    Overall bit rate            : 23.3 Mb/s
    Movie name                  : CinemaniaHDD.Net
    Encoded date                : UTC 2019-06-07 04:06:38
    Writing application         : mkvmerge v30.1.0 ('Forever And More') 64-bit
    Writing library             : libebml v1.3.6 + libmatroska v1.4.9
    Attachments                 : CINEMANIAHD.png

    Video
    ID                          : 1
    Format                      : HEVC
    Format/Info                 : High Efficiency Video Coding
    Format profile              : Main 10@L5.1@Main
    Codec ID                    : V_MPEGH/ISO/HEVC
    Duration                    : 2 h 18 min
    Bit rate                    : 22.0 Mb/s
    Width                       : 3 840 pixels
    Height                      : 1 600 pixels
    Display aspect ratio        : 2.40:1
    Frame rate mode             : Constant
    Frame rate                  : 23.976 (24000/1001) FPS
    Color space                 : YUV
    Chroma subsampling          : 4:2:0 (Type 2)
    Bit depth                   : 10 bits
    Bits/(Pixel*Frame)          : 0.149
    Stream size                 : 21.3 GiB (94%)
    Title                       : 2160p HDR [Bluray]
    Writing library             : x265 2.9:[Windows][GCC 8.2.0][64 bit] 10bit
    Encoding settings           : cpuid=1111039 / frame-threads=3 / numa-pools=8 / wpp / no-pmode / no-pme / no-psnr / no-ssim / log-level=2 / input-csp=1 / input-res=3840x1600 / interlace=0 / total-frames=0 / level-idc=51 / high-tier=1 / uhd-bd=0 / ref=3 / no-allow-non-conformance / no-repeat-headers / annexb / no-aud / no-hrd / info / hash=0 / no-temporal-layers / open-gop / min-keyint=24 / keyint=240 / gop-lookahead=0 / bframes=4 / b-adapt=0 / b-pyramid / bframe-bias=0 / rc-lookahead=15 / lookahead-slices=8 / scenecut=40 / radl=0 / no-intra-refresh / ctu=64 / min-cu-size=8 / no-rect / no-amp / max-tu-size=32 / tu-inter-depth=1 / tu-intra-depth=1 / limit-tu=0 / rdoq-level=0 / dynamic-rd=0.00 / no-ssim-rd / signhide / no-tskip / nr-intra=0 / nr-inter=0 / no-constrained-intra / strong-intra-smoothing / max-merge=2 / limit-refs=3 / no-limit-modes / me=1 / subme=2 / merange=57 / temporal-mvp / weightp / no-weightb / no-analyze-src-pics / deblock=0:0 / sao / no-sao-non-deblock / rd=2 / no-early-skip / rskip / fast-intra / no-tskip-fast / no-cu-lossless / no-b-intra / no-splitrd-skip / rdpenalty=0 / psy-rd=2.00 / psy-rdoq=0.00 / no-rd-refine / no-lossless / cbqpoffs=0 / crqpoffs=0 / rc=abr / bitrate=22000 / qcomp=0.60 / qpstep=4 / stats-write=0 / stats-read=2 / cplxblur=20.0 / qblur=0.5 / ipratio=1.40 / pbratio=1.30 / aq-mode=1 / aq-strength=1.00 / cutree / zone-count=0 / no-strict-cbr / qg-size=32 / no-rc-grain / qpmax=69 / qpmin=0 / no-const-vbv / sar=1 / overscan=0 / videoformat=5 / range=0 / colorprim=9 / transfer=0 / colormatrix=9 / chromaloc=1 / chromaloc-top=2 / chromaloc-bottom=2 / display-window=0 / max-cll=0,0 / min-luma=0 / max-luma=1023 / log2-max-poc-lsb=8 / vui-timing-info / vui-hrd-info / slices=1 / no-opt-qp-pps / no-opt-ref-list-length-pps / no-multi-pass-opt-rps / scenecut-bias=0.05 / no-opt-cu-delta-qp / no-aq-motion / no-hdr / no-hdr-opt / no-dhdr10-opt / no-idr-recovery-sei / analysis-reuse-level=5 / scale-factor=0 / refine-intra=0 / refine-inter=0 / refine-mv=0 / no-limit-sao / ctu-info=0 / no-lowpass-dct / refine-mv-type=0 / copy-pic=1 / max-ausize-factor=1.0 / no-dynamic-refine / no-single-sei
    Default                     : Yes
    Forced                      : Yes
    Color range                 : Limited
    Color primaries             : BT.2020
    Matrix coefficients         : BT.2020 non-constant

    Audio #1
    ID                          : 2
    Format                      : AC-3
    Format/Info                 : Audio Coding 3
    Commercial name             : Dolby Digital
    Codec ID                    : A_AC3
    Duration                    : 2 h 18 min
    Bit rate mode               : Constant
    Bit rate                    : 640 kb/s
    Channel(s)                  : 6 channels
    Channel layout              : L R C LFE Ls Rs
    Sampling rate               : 48.0 kHz
    Frame rate                  : 31.250 FPS (1536 SPF)
    Bit depth                   : 16 bits
    Compression mode            : Lossy
    Delay relative to video     : -5 ms
    Stream size                 : 635 MiB (3%)
    Title                       : AC3_5.1_Bluray_Esp
    Language                    : Spanish
    Service kind                : Complete Main
    Default                     : Yes
    Forced                      : Yes

    Audio #2
    ID                          : 3
    Format                      : AC-3
    Format/Info                 : Audio Coding 3
    Commercial name             : Dolby Digital
    Codec ID                    : A_AC3
    Duration                    : 2 h 18 min
    Bit rate mode               : Constant
    Bit rate                    : 640 kb/s
    Channel(s)                  : 6 channels
    Channel layout              : L R C LFE Ls Rs
    Sampling rate               : 48.0 kHz
    Frame rate                  : 31.250 FPS (1536 SPF)
    Bit depth                   : 16 bits
    Compression mode            : Lossy
    Delay relative to video     : -5 ms
    Stream size                 : 635 MiB (3%)
    Title                       : AC3_5.1_Bluray_Eng
    Language                    : English
    Service kind                : Complete Main
    Default                     : No
    Forced                      : No

    Text #1
    ID                          : 4
    Format                      : PGS
    Muxing mode                 : zlib
    Codec ID                    : S_HDMV/PGS
    Codec ID/Info               : Picture based subtitle format used on BDs/HD-DVDs
    Duration                    : 2 h 8 min
    Bit rate                    : 23.4 kb/s
    Count of elements           : 2536
    Stream size                 : 21.5 MiB (0%)
    Title                       : Sub_Esp [PGS]
    Language                    : Spanish
    Default                     : No
    Forced                      : No

    Text #2
    ID                          : 5
    Format                      : PGS
    Muxing mode                 : zlib
    Codec ID                    : S_HDMV/PGS
    Codec ID/Info               : Picture based subtitle format used on BDs/HD-DVDs
    Duration                    : 2 h 1 min
    Bit rate                    : 27.7 kb/s
    Count of elements           : 2344
    Stream size                 : 24.1 MiB (0%)
    Title                       : Sub_Eng [PGS]
    Language                    : English
    Default                     : No
    Forced                      : No

  • Peso: 22.6 GiB

Sinopsis

Descargar Godzilla (1998) 4K UHD HDR Latino, Mega, Google Drive. Las pruebas nucleares realizadas por los franceses en el Pacífico originan la aparición en el océano de un reptil mutante, de enormes dimensiones, localizado tras el ataque a un barco pescador japonés. Sin embargo, la criatura no se va a limitar a vivir en el agua: Godzilla se dirige con rumbo fijo a Nueva York, en cuyas calles causará el pánico.

Ficha técnica

Video trailer de la película

Enlaces de descarga

Rip de Bluray

Descargar Godzilla (1998) 4K UHD HDR Latino




Aportes de DPeliculasHDmega la pass es:dpeliculashdmega.org Aportes de CinemaniaHD la pass es:cinemaniahdd.com

Películas relacionadas

  • La Guerra Del Futuro (2022) NF WEB-DL 1080p Latino

    La Guerra Del Futuro (2022) NF WEB-DL 1080p Latino

    2022
    La Guerra Del Futuro (2022) NF WEB-DL 1080p Latino

    1h 41m 2022

    Descargar La Guerra Del Futuro (2022) NF WEB-DL 1080p Latino. Tras la caída de un meteorito que alberga...

    Director: Ng Yuen-fai

    Género: Acción

    Actores: Tse Kwan-Ho

  • The Independent (2022) PCOK WEB-DL 1080p Latino

    The Independent (2022) PCOK WEB-DL 1080p Latino

    2022
    The Independent (2022) PCOK WEB-DL 1080p Latino

    1h 48m 2022

    Una joven periodista descubre una conspiración que involucra a un candidato presidencial de Estados...

    Director: Amy Rice

    Género: Suspenso

    Actores: Zane Pais

  • Super… ¿quién? (2021) HD 1080p Latino

    Super… ¿quién? (2021) HD 1080p Latino

    2022
    Super… ¿quién? (2021) HD 1080p Latino

    1h 22m 2022

    Descargar Super... ¿quién? (2021) HD 1080p Latino. Cedric (Philippe Lacheau) intenta ganarse la vida...

    Director: Philippe Lacheau

    Género: Acción

    Actores: Yves Yan

  • Super… ¿quién? (2021) REMUX 1080p Latino

    Super… ¿quién? (2021) REMUX 1080p Latino

    2022
    Super… ¿quién? (2021) REMUX 1080p Latino

    1h 22m 2022

    Descargar Super... ¿quién? (2021) REMUX 1080p Latino. Cedric (Philippe Lacheau) intenta ganarse la...

    Director: Philippe Lacheau

    Género: Acción

    Actores: Yves Yan

descargar Godzilla (1998) 4K UHD HDR Latino 4K HDR 1080p gratis, Godzilla (1998) 4K UHD HDR Latino 4K HDR mega 1 link, Godzilla (1998) 4K UHD HDR Latino 4K HDR pelicula completa, descargar Godzilla (1998) 4K UHD HDR Latino 4K HDR gratis en mega.

Godzilla (1998) 4K UHD HDR Latino pelicula full hd, Godzilla (1998) 4K UHD HDR Latino mega latino, Godzilla (1998) 4K UHD HDR Latino 4k latino, Godzilla (1998) 4K UHD HDR Latino pelicula completa, Godzilla (1998) 4K UHD HDR Latino descargar gratis, descargar Godzilla (1998) 4K UHD HDR Latino pelicula latino, Godzilla (1998) 4K UHD HDR Latino 1 link mega, Godzilla (1998) 4K UHD HDR Latino 1 link google drive, Godzilla (1998) 4K UHD HDR Latino hd 1080p latino.
Comentarios 0