God of War (2017) 1080p Latino

2.277 vistas
1 estrella2 estrellas3 estrellas4 estrellas5 estrellas (4 votos, promedio: 3,50 de 5)
Cargando…

Información de God of War (2017) 1080p Latino

Datos de la película

  • Calidad: 1080p
  • Audio: Español Latino AC3 2.0 Capturado -Chino AC3 5.1 BLURAY
  • Subtitulos: Español Latino SRT
  • Resolución: 1920X800
  • Formato: MKV
  • Codec: H.264
  • Encoder: Dpelis
  • Mediainfo: Clic para Mostrar Datos Ver
  • Format                                   : Matroska
    Format version                           : Version 4 / Version 2
    File size                                : 3.63 GiB
    Duration                                 : 2 h 8 min
    Overall bit rate                         : 4 045 kb/s
    Movie name                               : dpeliculashdmega.org
    Encoded date                             : UTC 2017-11-16 04:20:21 / UTC 2017-11-16T02:26:43Z
    Writing application                      : mkvmerge v15.0.0 ('Duel with the Devil') 64-bit
    Writing library                          : libebml v1.3.5 + libmatroska v1.4.5 / Lavf57.7.2

    Video
    ID                                       : 1
    Format                                   : AVC
    Format/Info                              : Advanced Video Codec
    Format profile                           : High@L4.1
    Format settings                          : CABAC / 5 Ref Frames
    Format settings, CABAC                   : Yes
    Format settings, RefFrames               : 5 frames
    Codec ID                                 : V_MPEG4/ISO/AVC
    Duration                                 : 2 h 8 min
    Bit rate                                 : 3 500 kb/s
    Width                                    : 1 920 pixels
    Height                                   : 804 pixels
    Display aspect ratio                     : 2.40:1
    Frame rate mode                          : Constant
    Frame rate                               : 24.000 FPS
    Color space                              : YUV
    Chroma subsampling                       : 4:2:0
    Bit depth                                : 8 bits
    Scan type                                : Progressive
    Bits/(Pixel*Frame)                       : 0.094
    Stream size                              : 3.04 GiB (84%)
    Title                                    : God of War (2017) 1080p Latino
    Writing library                          : x264 core 148 r2708 86b7198
    Encoding settings                        : cabac=1 / ref=5 / deblock=1:0:0 / analyse=0x3:0x113 / me=umh / subme=8 / psy=1 / psy_rd=1.00:0.00 / mixed_ref=1 / me_range=16 / chroma_me=1 / trellis=1 / 8x8dct=1 / cqm=0 / deadzone=21,11 / fast_pskip=1 / chroma_qp_offset=-2 / threads=25 / lookahead_threads=4 / sliced_threads=0 / nr=0 / decimate=1 / interlaced=0 / bluray_compat=0 / constrained_intra=0 / bframes=3 / b_pyramid=2 / b_adapt=2 / b_bias=0 / direct=3 / weightb=1 / open_gop=0 / weightp=2 / keyint=240 / keyint_min=24 / scenecut=40 / intra_refresh=0 / rc_lookahead=50 / rc=abr / mbtree=1 / bitrate=3500 / ratetol=1.0 / qcomp=0.60 / qpmin=0 / qpmax=69 / qpstep=4 / vbv_maxrate=62500 / vbv_bufsize=78125 / nal_hrd=none / filler=0 / ip_ratio=1.40 / aq=1:1.00
    Default                                  : Yes
    Forced                                   : No
    Color range                              : Limited
    Color primaries                          : BT.709
    Transfer characteristics                 : BT.709
    Matrix coefficients                      : BT.709
    Statistics Tags Issue                    : mkvmerge v15.0.0 ('Duel with the Devil') 64-bit 2017-11-16 04:20:21 / mkvmerge v15.0.0 ('Duel with the Devil') 64-bit 2017-11-16 04:20:21 / UTC 2017-11-16T02:26:43Z
    FromStats_BitRate                        : 3467054
    FromStats_Duration                       : 02:08:36.167000000
    FromStats_FrameCount                     : 185188
    FromStats_StreamSize                     : 3344046639

    Audio #1
    ID                                       : 2
    Format                                   : AC-3
    Format/Info                              : Audio Coding 3
    Format settings, Endianness              : Big
    Codec ID                                 : A_AC3
    Duration                                 : 2 h 8 min
    Bit rate mode                            : Constant
    Bit rate                                 : 192 kb/s
    Channel(s)                               : 2 channels
    Channel positions                        : Front: L R
    Sampling rate                            : 48.0 kHz
    Frame rate                               : 31.250 FPS (1536 SPF)
    Bit depth                                : 16 bits
    Compression mode                         : Lossy
    Delay relative to video                  : 895 ms
    Stream size                              : 177 MiB (5%)
    Title                                    : Latino-AC3
    Language                                 : Spanish
    Service kind                             : Complete Main
    Default                                  : Yes
    Forced                                   : No
    Statistics Tags Issue                    : mkvmerge v15.0.0 ('Duel with the Devil') 64-bit 2017-11-16 04:20:21 / mkvmerge v15.0.0 ('Duel with the Devil') 64-bit 2017-11-16 04:20:21 / UTC 2017-11-16T02:26:43Z
    FromStats_BitRate                        : 192000
    FromStats_Duration                       : 02:08:34.080000000
    FromStats_FrameCount                     : 241065
    FromStats_StreamSize                     : 185137920

    Audio #2
    ID                                       : 3
    Format                                   : AC-3
    Format/Info                              : Audio Coding 3
    Format settings, Endianness              : Big
    Codec ID                                 : A_AC3
    Duration                                 : 2 h 8 min
    Bit rate mode                            : Constant
    Bit rate                                 : 384 kb/s
    Channel(s)                               : 6 channels
    Channel positions                        : Front: L C R, Side: L R, LFE
    Sampling rate                            : 48.0 kHz
    Frame rate                               : 31.250 FPS (1536 SPF)
    Bit depth                                : 16 bits
    Compression mode                         : Lossy
    Delay relative to video                  : -5 ms
    Stream size                              : 353 MiB (9%)
    Title                                    : Chino-ACe
    Language                                 : Chinese
    Service kind                             : Complete Main
    Default                                  : No
    Forced                                   : No
    Statistics Tags Issue                    : mkvmerge v15.0.0 ('Duel with the Devil') 64-bit 2017-11-16 04:20:21 / mkvmerge v15.0.0 ('Duel with the Devil') 64-bit 2017-11-16 04:20:21 / UTC 2017-11-16T02:26:43Z
    FromStats_BitRate                        : 384000
    FromStats_Duration                       : 02:08:34.144000000
    FromStats_FrameCount                     : 241067
    FromStats_StreamSize                     : 370278912

    Text
    ID                                       : 4
    Format                                   : UTF-8
    Codec ID                                 : S_TEXT/UTF8
    Codec ID/Info                            : UTF-8 Plain Text
    Language                                 : Spanish
    Default                                  : No
    Forced                                   : No
    Statistics Tags Issue                    : mkvmerge v15.0.0 ('Duel with the Devil') 64-bit 2017-11-16 04:20:21 / mkvmerge v15.0.0 ('Duel with the Devil') 64-bit 2017-11-16 04:20:21 / UTC 2017-11-16T02:26:43Z
    FromStats_BitRate                        : 41
    FromStats_Duration                       : 02:03:14.917000000
    FromStats_FrameCount                     : 1468
    FromStats_StreamSize                     : 38380

    Menu
    00:00:00.000                             : :00:00:00.000
    00:09:38.417                             : :00:09:38.333
    00:14:08.125                             : :00:14:08.125
    00:20:37.583                             : :00:20:37.542
    00:29:19.208                             : :00:29:19.125
    00:39:55.375                             : :00:39:55.250
    00:45:02.667                             : :00:45:02.583
    00:51:34.333                             : :00:51:34.292
    01:01:02.833                             : :01:01:02.708
    01:07:58.375                             : :01:07:58.250
    01:15:19.333                             : :01:15:19.250
    01:22:28.458                             : :01:22:28.292
    01:32:57.042                             : :01:32:57.042
    01:37:46.708                             : :01:37:46.583
    01:42:48.583                             : :01:42:48.500
    01:49:02.792                             : :01:49:02.750
    01:57:54.875                             : :01:57:54.750
    02:05:09.542                             : :02:05:09.500

  • Peso: 3.63 GiB

Sinopsis

Durante el siglo XVI, los piratas japoneses proliferan a lo largo de la costa china. En 1557, los piratas toman Cengang en Zhejiang. Después de meses de vanos avances, el Comandante Yu (Sammo Hung) finalmente los derrota bajo la dirección del recién ascendido General Qi (Vincent Zhao). Los piratas, sin embargo, logran escapar. En 1561, los piratas se reagrupan y atacan de nuevo las ciudades costeras de China. Con las dos ciudades de Xinhe y Taizhou bajo ataque, el ejército de Qi está atrapado entre dos fuegos. A pesar de que la mayoría de los miembros de la familia de sus soldados se encuentran en Xinhe, Qi toma la decisión difícil de ir a Taizhou y deja a su esposa a cargo de la lucha contra los piratas en Xinhe, sabiendo que la derrota del equipo de élite de los piratas en Taizhou traer paz duradera a las ciudades costeras.

Ficha técnica

  • Titulo original: 荡寇风云
  • Fecha de lanzamiento: 27-05-2017 (China)
  • Director: Gordon Chan
  • Género: Acción, Historia
  • Puntuación: 3.5 4 votos
  • Duración:
    2 h 8 min

Video trailer de la película

Enlaces de descarga

Rip de Bluray

Descargar God of War (2017) 1080p Latino




Aportes de DPeliculasHDmega la pass es:dpeliculashdmega.org Aportes de CinemaniaHD la pass es:cinemaniahdd.com
Guardado en : Acción , Historia

Películas relacionadas

  • El Justiciero 2 (2018) 1080p Latino

    2018
    El Justiciero 2 (2018) 1080p Latino

    1.0 2h 0m 2018

    Descargar El Justiciero 2 (2018) 1080p Latino, Mega, Google Drive. Robert McCall (Denzel Washington)...

    Director: Donald Sparks

    Género: Acción

    Actores: Wesley Pereira

  • Kin (2018) Full 1080p Latino

    2018
    Kin (2018) Full 1080p Latino

    5.0 1h 42m 2018

    Perseguidos por un criminal vengativo (James Franco) y una banda de soldados sobrenaturales,​ un exconvicto...

    Director: Josh Baker

    Género: Acción

    Actores: Zoë Kravitz

  • Los increíbles 2 (2018) Full 1080p Latino

    2018
    Los increíbles 2 (2018) Full 1080p Latino

    5.0 1h 58m 2018

    Helen tiene que liderar una campaña para que los superhéroes regresen, mientras Bob vive su vida "normal"...

    Director: Seong-Young Kim

    Género: Acción

    Actores: Usher

  • Legado (2018) 1080p Latino

    2018
    Legado (2018) 1080p Latino

    2.3 1h 42m 2018

    descargar Legado (2018) 1080p Latino; Mega, Google Drive. Perseguidos por un criminal vengativo (James...

    Director: Josh Baker

    Género: Acción

    Actores: Zoë Kravitz

Comentarios 1
  • frank - 17 noviembre, 2017

    muchas gracias por la peli podrias subir mas peliculas chinas me encantan