×

¿Problemas para descargar con Mozilla, EDGE? Deshabilita la opción "Abrir vinculos en una pestaña nueva" tal como lo muestra ésta imagen.

Goal (2005) REMUX 1080p Latino – CMHDD

132 vistas

Información de Goal (2005) REMUX 1080p Latino – CMHDD

Datos de la película

  • Calidad: Full 1080p
  • Audio: Español Latino AC3 5.1 BLURAY - Ingles AC3 5.1 BLURAY
  • Subtitulos: Español Latino PGS
  • Resolución: 1920x1080p
  • Formato: MKV
  • Codec: H.264
  • Encoder: Dracarys
  • Mediainfo: Clic para Mostrar Datos Ver
  • Format                      : Matroska
    Format version              : Version 4
    File size                   : 18.2 GiB
    Duration                    : 1 h 58 min
    Overall bit rate mode       : Variable
    Overall bit rate            : 22.1 Mb/s
    Movie name                  : Goal (2005) REMUX 1080p Latino - CMHDD
    Encoded date                : UTC 2023-09-01 23:53:17
    Writing application         : mkvmerge v47.0.0 ('Black Flag') 64-bit
    Writing library             : libebml v1.3.10 + libmatroska v1.5.2

    Video
    ID                          : 1
    ID in the original source m : 4113 (0x1011)
    Format                      : AVC
    Format/Info                 : Advanced Video Codec
    Format profile              : High@L4.1
    Format settings             : CABAC / 4 Ref Frames
    Format settings, CABAC      : Yes
    Format settings, Reference  : 4 frames
    Codec ID                    : V_MPEG4/ISO/AVC
    Duration                    : 1 h 58 min
    Bit rate mode               : Variable
    Bit rate                    : 16.2 Mb/s
    Maximum bit rate            : 30.0 Mb/s
    Width                       : 1 920 pixels
    Height                      : 1 080 pixels
    Display aspect ratio        : 16:9
    Frame rate mode             : Constant
    Frame rate                  : 23.976 (24000/1001) FPS
    Standard                    : NTSC
    Color space                 : YUV
    Chroma subsampling          : 4:2:0
    Bit depth                   : 8 bits
    Scan type                   : Progressive
    Bits/(Pixel*Frame)          : 0.325
    Stream size                 : 13.3 GiB (73%)
    Default                     : Yes
    Forced                      : No
    Color range                 : Limited
    Color primaries             : BT.709
    Transfer characteristics    : BT.709
    Matrix coefficients         : BT.709
    Original source medium      : Blu-ray

    Audio #1
    ID                          : 2
    ID in the original source m : 4352 (0x1100)
    Format                      : AC-3
    Format/Info                 : Audio Coding 3
    Commercial name             : Dolby Digital
    Codec ID                    : A_AC3
    Duration                    : 1 h 58 min
    Bit rate mode               : Constant
    Bit rate                    : 640 kb/s
    Channel(s)                  : 6 channels
    Channel layout              : L R C LFE Ls Rs
    Sampling rate               : 48.0 kHz
    Frame rate                  : 31.250 FPS (1536 SPF)
    Compression mode            : Lossy
    Stream size                 : 541 MiB (3%)
    Language                    : English
    Service kind                : Complete Main
    Default                     : No
    Forced                      : No
    Original source medium      : Blu-ray

    Audio #2
    ID                          : 3
    ID in the original source m : 4353 (0x1101)
    Format                      : PCM
    Format settings             : Little / Signed
    Codec ID                    : A_PCM/INT/LIT
    Duration                    : 1 h 58 min
    Bit rate mode               : Constant
    Bit rate                    : 4 608 kb/s
    Channel(s)                  : 6 channels
    Sampling rate               : 48.0 kHz
    Frame rate                  : 200.000 FPS (240 SPF)
    Bit depth                   : 16 bits
    Stream size                 : 3.80 GiB (21%)
    Language                    : English
    Default                     : No
    Forced                      : No
    Original source medium      : Blu-ray

    Audio #3
    ID                          : 4
    ID in the original source m : 4355 (0x1103)
    Format                      : AC-3
    Format/Info                 : Audio Coding 3
    Commercial name             : Dolby Digital
    Codec ID                    : A_AC3
    Duration                    : 1 h 58 min
    Bit rate mode               : Constant
    Bit rate                    : 640 kb/s
    Channel(s)                  : 6 channels
    Channel layout              : L R C LFE Ls Rs
    Sampling rate               : 48.0 kHz
    Frame rate                  : 31.250 FPS (1536 SPF)
    Compression mode            : Lossy
    Stream size                 : 541 MiB (3%)
    Language                    : Spanish
    Service kind                : Complete Main
    Default                     : Yes
    Forced                      : No
    Original source medium      : Blu-ray

    Text #1
    ID                          : 5
    ID in the original source m : 4610 (0x1202)
    Format                      : PGS
    Muxing mode                 : zlib
    Codec ID                    : S_HDMV/PGS
    Codec ID/Info               : Picture based subtitle format used on BDs/HD-DVDs
    Duration                    : 1 h 52 min
    Bit rate                    : 25.1 kb/s
    Frame rate                  : 0.273 FPS
    Count of elements           : 1833
    Stream size                 : 20.1 MiB (0%)
    Language                    : Spanish
    Default                     : No
    Forced                      : No
    Original source medium      : Blu-ray

    Text #2
    ID                          : 6
    ID in the original source m : 4612 (0x1204)
    Format                      : PGS
    Muxing mode                 : zlib
    Codec ID                    : S_HDMV/PGS
    Codec ID/Info               : Picture based subtitle format used on BDs/HD-DVDs
    Duration                    : 1 h 14 min
    Bit rate                    : 373 b/s
    Frame rate                  : 0.004 FPS
    Count of elements           : 16
    Stream size                 : 203 KiB (0%)
    Language                    : Spanish
    Default                     : Yes
    Forced                      : No
    Original source medium      : Blu-ray

    Menu
    00:00:00.000                : en:Capítulo 01
    00:05:33.916                : en:Capítulo 02
    00:11:25.267                : en:Capítulo 03
    00:18:13.217                : en:Capítulo 04
    00:23:11.473                : en:Capítulo 05
    00:29:24.804                : en:Capítulo 06
    00:35:32.213                : en:Capítulo 07
    00:40:44.525                : en:Capítulo 08
    00:48:34.620                : en:Capítulo 09
    00:55:33.580                : en:Capítulo 10
    01:01:54.001                : en:Capítulo 11
    01:08:54.880                : en:Capítulo 12
    01:13:24.358                : en:Capítulo 13
    01:19:43.236                : en:Capítulo 14
    01:26:01.114                : en:Capítulo 15
    01:31:21.434                : en:Capítulo 16
    01:33:50.625                : en:Capítulo 17
    01:38:35.993                : en:Capítulo 18
    01:44:16.833                : en:Capítulo 19
    01:53:00.774                : en:Capítulo 20

  • Peso: 18.2 GiB

Sinopsis

Como millones de niños de todo el mundo, Santiago tiene el sueño de ser un jugador de fútbol profesional. Sin embargo, viviendo en una barriada de Los Angeles, piensa que es un sueño difícil de cumplirse. Cuando el pequeño Santiago Munez (Kuno Becker) cruza la frontera de México y se traslada a América con su familia, sólo tiene dos posesiones: su balón de fútbol y una foto de la Copa del Mundo hecha jirones.

Ficha técnica

Video trailer de la película

Enlaces de descarga

Rip de Bluray

Descargar Goal (2005) REMUX 1080p Latino – CMHDD


Aportes de DPeliculasHDmega la pass es:dpeliculashdmega.org Aportes de CinemaniaHD la pass es:cinemaniahdd.com Aportes recientes:cinemaniahdd.net
Guardado en : Drama

Películas relacionadas

descargar Goal (2005) REMUX 1080p Latino – CMHDD Full 1080p 1080p gratis, Goal (2005) REMUX 1080p Latino – CMHDD Full 1080p mega 1 link, Goal (2005) REMUX 1080p Latino – CMHDD Full 1080p pelicula completa, descargar Goal (2005) REMUX 1080p Latino – CMHDD Full 1080p gratis en mega.

Goal (2005) REMUX 1080p Latino – CMHDD pelicula full hd, Goal (2005) REMUX 1080p Latino – CMHDD mega latino, Goal (2005) REMUX 1080p Latino – CMHDD 4k latino, Goal (2005) REMUX 1080p Latino – CMHDD pelicula completa, Goal (2005) REMUX 1080p Latino – CMHDD descargar gratis, descargar Goal (2005) REMUX 1080p Latino – CMHDD pelicula latino, Goal (2005) REMUX 1080p Latino – CMHDD 1 link mega, Goal (2005) REMUX 1080p Latino – CMHDD 1 link google drive, Goal (2005) REMUX 1080p Latino – CMHDD hd 1080p latino.
Comentarios 0