×

¿Problemas para descargar con Mozilla, EDGE? Deshabilita la opción "Abrir vinculos en una pestaña nueva" tal como lo muestra ésta imagen.

Glory (1989) REMUX 4K HDR Latino – CMHDD

195 vistas

Información de Glory (1989) REMUX 4K HDR Latino – CMHDD

Datos de la película

  • Calidad: 4K HDR
  • Audio: Español Latino AC3 5.1 BLURAY - Ingles DTS 5.1 BLURAY
  • Subtitulos: Español Latino PGS
  • Resolución: 3840x2160p
  • Formato: MKV
  • Codec: H.264
  • Encoder: Dracarys
  • Mediainfo: Clic para Mostrar Datos Ver
  • Format                      : Matroska
    Format version              : Version 4
    File size                   : 47.0 GiB
    Duration                    : 2 h 2 min
    Overall bit rate mode       : Variable
    Overall bit rate            : 55.0 Mb/s
    Movie name                  : Glory (1989) REMUX 4K HDR Latino - CMHDD
    Encoded date                : UTC 2023-04-07 00:06:31
    Writing application         : mkvmerge v47.0.0 ('Black Flag') 64-bit
    Writing library             : libebml v1.3.10 + libmatroska v1.5.2
    Cover                       : Yes
    Attachments                 : cover.jpg

    Video
    ID                          : 1
    ID in the original source m : 4113 (0x1011)
    Format                      : HEVC
    Format/Info                 : High Efficiency Video Coding
    Format profile              : Main 10@L5.1@High
    HDR format                  : SMPTE ST 2086, HDR10 compatible
    Codec ID                    : V_MPEGH/ISO/HEVC
    Duration                    : 2 h 2 min
    Bit rate                    : 51.3 Mb/s
    Width                       : 3 840 pixels
    Height                      : 2 160 pixels
    Display aspect ratio        : 16:9
    Frame rate mode             : Constant
    Frame rate                  : 23.976 (24000/1001) FPS
    Color space                 : YUV
    Chroma subsampling          : 4:2:0 (Type 2)
    Bit depth                   : 10 bits
    Bits/(Pixel*Frame)          : 0.258
    Stream size                 : 43.8 GiB (93%)
    Default                     : Yes
    Forced                      : No
    Color range                 : Limited
    Color primaries             : BT.2020
    Transfer characteristics    : PQ
    Matrix coefficients         : BT.2020 non-constant
    Mastering display color pri : Display P3
    Mastering display luminance : min: 0.0050 cd/m2, max: 4000 cd/m2
    Maximum Content Light Level : 7605 cd/m2
    Maximum Frame-Average Light : 1226 cd/m2
    Original source medium      : Blu-ray

    Audio #1
    ID                          : 2
    ID in the original source m : 4352 (0x1100)
    Format                      : AC-3
    Format/Info                 : Audio Coding 3
    Commercial name             : Dolby Digital
    Codec ID                    : A_AC3
    Duration                    : 2 h 2 min
    Bit rate mode               : Constant
    Bit rate                    : 640 kb/s
    Channel(s)                  : 6 channels
    Channel layout              : L R C LFE Ls Rs
    Sampling rate               : 48.0 kHz
    Frame rate                  : 31.250 FPS (1536 SPF)
    Compression mode            : Lossy
    Stream size                 : 560 MiB (1%)
    Language                    : English
    Service kind                : Complete Main
    Default                     : No
    Forced                      : No
    Original source medium      : Blu-ray

    Audio #2
    ID                          : 3
    ID in the original source m : 4353 (0x1101)
    Format                      : DTS XLL
    Format/Info                 : Digital Theater Systems
    Commercial name             : DTS-HD Master Audio
    Codec ID                    : A_DTS
    Duration                    : 2 h 2 min
    Bit rate mode               : Variable
    Bit rate                    : 2 364 kb/s
    Channel(s)                  : 6 channels
    Channel layout              : C L R Ls Rs LFE
    Sampling rate               : 48.0 kHz
    Frame rate                  : 93.750 FPS (512 SPF)
    Bit depth                   : 16 bits
    Compression mode            : Lossless
    Stream size                 : 2.02 GiB (4%)
    Language                    : English
    Default                     : No
    Forced                      : No
    Original source medium      : Blu-ray

    Audio #3
    ID                          : 4
    ID in the original source m : 4364 (0x110C)
    Format                      : AC-3
    Format/Info                 : Audio Coding 3
    Commercial name             : Dolby Digital
    Codec ID                    : A_AC3
    Duration                    : 2 h 2 min
    Bit rate mode               : Constant
    Bit rate                    : 640 kb/s
    Channel(s)                  : 6 channels
    Channel layout              : L R C LFE Ls Rs
    Sampling rate               : 48.0 kHz
    Frame rate                  : 31.250 FPS (1536 SPF)
    Compression mode            : Lossy
    Delay relative to video     : 24 ms
    Stream size                 : 560 MiB (1%)
    Language                    : Spanish
    Service kind                : Complete Main
    Default                     : Yes
    Forced                      : No
    Original source medium      : Blu-ray

    Text
    ID                          : 5
    ID in the original source m : 4795 (0x12BB)
    Format                      : PGS
    Muxing mode                 : zlib
    Codec ID                    : S_HDMV/PGS
    Codec ID/Info               : Picture based subtitle format used on BDs/HD-DVDs
    Duration                    : 1 h 56 min
    Bit rate                    : 25.4 kb/s
    Frame rate                  : 0.330 FPS
    Count of elements           : 2310
    Stream size                 : 21.2 MiB (0%)
    Language                    : Spanish
    Default                     : No
    Forced                      : No
    Original source medium      : Blu-ray

    Menu
    00:00:00.000                : en:Capítulo 01
    00:08:28.049                : en:Capítulo 02
    00:17:17.828                : en:Capítulo 03
    00:21:55.022                : en:Capítulo 04
    00:29:55.251                : en:Capítulo 05
    00:36:53.461                : en:Capítulo 06
    00:50:45.709                : en:Capítulo 07
    00:56:42.732                : en:Capítulo 08
    01:04:52.722                : en:Capítulo 09
    01:12:09.616                : en:Capítulo 10
    01:17:47.537                : en:Capítulo 11
    01:27:55.687                : en:Capítulo 12
    01:36:09.889                : en:Capítulo 13
    01:42:32.437                : en:Capítulo 14
    01:48:20.577                : en:Capítulo 15
    01:52:35.915                : en:Capítulo 16

  • Peso: 47.0 GiB

Sinopsis

A principios de la Guerra de Secesión, el ejército del norte se mostraba reticente a dar armas a los negros. El heroico comportamiento del regimiento de Massachusetts, formado por soldados afroamericanos y oficiales blancos, resultó decisivo para que la Unión abriera las puertas a 180.000 soldados negros.

Ficha técnica

Video trailer de la película

Enlaces de descarga

Rip de Bluray

Descargar Glory (1989) REMUX 4K HDR Latino – CMHDD


Aportes de DPeliculasHDmega la pass es:dpeliculashdmega.org Aportes de CinemaniaHD la pass es:cinemaniahdd.com Aportes recientes:cinemaniahdd.net
Guardado en : Bélica , Drama , Historia

Películas relacionadas

descargar Glory (1989) REMUX 4K HDR Latino – CMHDD 4K HDR 1080p gratis, Glory (1989) REMUX 4K HDR Latino – CMHDD 4K HDR mega 1 link, Glory (1989) REMUX 4K HDR Latino – CMHDD 4K HDR pelicula completa, descargar Glory (1989) REMUX 4K HDR Latino – CMHDD 4K HDR gratis en mega.

Glory (1989) REMUX 4K HDR Latino – CMHDD pelicula full hd, Glory (1989) REMUX 4K HDR Latino – CMHDD mega latino, Glory (1989) REMUX 4K HDR Latino – CMHDD 4k latino, Glory (1989) REMUX 4K HDR Latino – CMHDD pelicula completa, Glory (1989) REMUX 4K HDR Latino – CMHDD descargar gratis, descargar Glory (1989) REMUX 4K HDR Latino – CMHDD pelicula latino, Glory (1989) REMUX 4K HDR Latino – CMHDD 1 link mega, Glory (1989) REMUX 4K HDR Latino – CMHDD 1 link google drive, Glory (1989) REMUX 4K HDR Latino – CMHDD hd 1080p latino.
Comentarios 0