Glory (1989) Full HD 1080p Latino – CMHDD

127 vistas
1 estrella2 estrellas3 estrellas4 estrellas5 estrellas (Ninguna valoración todavía)
Cargando...

Información de Glory (1989) Full HD 1080p Latino – CMHDD

Datos de la película

  • Calidad: Full 1080p
  • Audio: Español Latino AC3 5.1 BLURAY - Ingles AC3 5.1 BLURAY
  • Subtitulos: Español Latino PGS
  • Resolución: 1920x1080p
  • Formato: MKV
  • Codec: H.264
  • Encoder: Dracarys
  • Mediainfo: Clic para Mostrar Datos Ver
  • Format                      : Matroska
    Format version              : Version 4
    File size                   : 12.9 GiB
    Duration                    : 2 h 2 min
    Overall bit rate            : 15.1 Mb/s
    Movie name                  : Glory (1989) Full HD 1080p Latino - CMHDD
    Encoded date                : UTC 2021-03-03 19:25:35
    Writing application         : mkvmerge v51.0.0 ('I Wish') 64-bit
    Writing library             : libebml v1.4.0 + libmatroska v1.6.2

    Video
    ID                          : 1
    Format                      : AVC
    Format/Info                 : Advanced Video Codec
    Format profile              : High@L4.1
    Format settings             : CABAC / 4 Ref Frames
    Format settings, CABAC      : Yes
    Format settings, Reference  : 4 frames
    Codec ID                    : V_MPEG4/ISO/AVC
    Duration                    : 2 h 2 min
    Bit rate                    : 13.8 Mb/s
    Width                       : 1 920 pixels
    Height                      : 1 080 pixels
    Display aspect ratio        : 16:9
    Frame rate mode             : Constant
    Frame rate                  : 23.976 (24000/1001) FPS
    Color space                 : YUV
    Chroma subsampling          : 4:2:0
    Bit depth                   : 8 bits
    Scan type                   : Progressive
    Bits/(Pixel*Frame)          : 0.277
    Stream size                 : 11.8 GiB (91%)
    Writing library             : x264 core 157 r2935 545de2f
    Encoding settings           : cabac=1 / ref=4 / deblock=1:0:0 / analyse=0x3:0x133 / me=tesa / subme=11 / psy=1 / psy_rd=1.00:0.00 / mixed_ref=1 / me_range=24 / chroma_me=1 / trellis=2 / 8x8dct=1 / cqm=0 / deadzone=21,11 / fast_pskip=0 / chroma_qp_offset=-2 / threads=24 / lookahead_threads=6 / sliced_threads=0 / nr=0 / decimate=1 / interlaced=0 / bluray_compat=0 / constrained_intra=0 / bframes=16 / b_pyramid=2 / b_adapt=2 / b_bias=0 / direct=3 / weightb=1 / open_gop=0 / weightp=2 / keyint=240 / keyint_min=24 / scenecut=40 / intra_refresh=0 / rc_lookahead=60 / rc=crf / mbtree=1 / crf=20.0 / qcomp=0.60 / qpmin=0 / qpmax=69 / qpstep=4 / vbv_maxrate=62500 / vbv_bufsize=78125 / crf_max=0.0 / nal_hrd=none / filler=0 / ip_ratio=1.40 / aq=1:1.00
    Default                     : Yes
    Forced                      : No
    Color range                 : Limited
    Color primaries             : BT.709
    Transfer characteristics    : BT.709
    Matrix coefficients         : BT.709

    Audio #1
    ID                          : 2
    Format                      : AC-3
    Format/Info                 : Audio Coding 3
    Commercial name             : Dolby Digital
    Codec ID                    : A_AC3
    Duration                    : 2 h 2 min
    Bit rate mode               : Constant
    Bit rate                    : 640 kb/s
    Channel(s)                  : 6 channels
    Channel layout              : L R C LFE Ls Rs
    Sampling rate               : 48.0 kHz
    Frame rate                  : 31.250 FPS (1536 SPF)
    Compression mode            : Lossy
    Stream size                 : 560 MiB (4%)
    Language                    : Spanish
    Service kind                : Complete Main
    Default                     : Yes
    Forced                      : No

    Audio #2
    ID                          : 3
    Format                      : AC-3
    Format/Info                 : Audio Coding 3
    Commercial name             : Dolby Digital
    Codec ID                    : A_AC3
    Duration                    : 2 h 2 min
    Bit rate mode               : Constant
    Bit rate                    : 640 kb/s
    Channel(s)                  : 6 channels
    Channel layout              : L R C LFE Ls Rs
    Sampling rate               : 48.0 kHz
    Frame rate                  : 31.250 FPS (1536 SPF)
    Compression mode            : Lossy
    Stream size                 : 560 MiB (4%)
    Language                    : English
    Service kind                : Complete Main
    Default                     : No
    Forced                      : No

    Text
    ID                          : 4
    Format                      : PGS
    Muxing mode                 : zlib
    Codec ID                    : S_HDMV/PGS
    Codec ID/Info               : Picture based subtitle format used on BDs/HD-DVDs
    Duration                    : 1 h 56 min
    Bit rate                    : 43.2 kb/s
    Count of elements           : 2314
    Stream size                 : 36.0 MiB (0%)
    Language                    : Spanish
    Default                     : No
    Forced                      : No

    Menu
    00:00:00.000                : :Chapter 1
    00:08:28.049                : :Chapter 2
    00:17:17.828                : :Chapter 3
    00:21:55.022                : :Chapter 4
    00:29:55.252                : :Chapter 5
    00:36:53.461                : :Chapter 6
    00:50:45.709                : :Chapter 7
    00:56:42.733                : :Chapter 8
    01:04:52.722                : :Chapter 9
    01:12:09.617                : :Chapter 10
    01:17:47.538                : :Chapter 11
    01:27:55.687                : :Chapter 12
    01:36:09.889                : :Chapter 13
    01:42:32.438                : :Chapter 14
    01:48:20.577                : :Chapter 15
    01:52:35.749                : :Chapter 16

  • Peso: 12.9 GiB

Sinopsis

A principios de la Guerra de Secesión, el ejército del norte se mostraba reticente a dar armas a los negros. El heroico comportamiento del regimiento de Massachusetts, formado por soldados afroamericanos y oficiales blancos, resultó decisivo para que la Unión abriera las puertas a 180.000 soldados negros.

Ficha técnica

Video trailer de la película

Enlaces de descarga

Rip de Bluray

Descargar Glory (1989) Full HD 1080p Latino – CMHDD




Aportes de DPeliculasHDmega la pass es:dpeliculashdmega.org Aportes de CinemaniaHD la pass es:cinemaniahdd.com
Guardado en : Bélica , Drama , Historia

Películas relacionadas

Glory (1989) Full HD 1080p Latino – CMHDD pelicula full hd, Glory (1989) Full HD 1080p Latino – CMHDD mega latino, Glory (1989) Full HD 1080p Latino – CMHDD 4k latino, Glory (1989) Full HD 1080p Latino – CMHDD pelicula completa, Glory (1989) Full HD 1080p Latino – CMHDD descargar gratis, descargar Glory (1989) Full HD 1080p Latino – CMHDD pelicula latino, Glory (1989) Full HD 1080p Latino – CMHDD 1 link mega, Glory (1989) Full HD 1080p Latino – CMHDD 1 link google drive, Glory (1989) Full HD 1080p Latino – CMHDD hd 1080p latino.
Comentarios 0