×

¿Problemas para descargar con Mozilla, EDGE? Deshabilita la opción "Abrir vinculos en una pestaña nueva" tal como lo muestra ésta imagen.

Glitch (2015) Temporada 1 NF WEB-DL 1080p Latino

992 vistas

Información de Glitch (2015) Temporada 1 NF WEB-DL 1080p Latino

Datos de la película

  • Calidad: WEBDL
  • Audio: Español Latino E-AC3 2.0 Netflix - Ingles E-AC3 2.0 Netflix
  • Subtitulos: Español Latino SRT- FORZADOS SRT
  • Resolución: 1920x1080
  • Formato:
  • Codec: H.264
  • Encoder: cinemaniahdd
  • Mediainfo: Clic para Mostrar Datos Ver
  • Glitch S01\Glitch S01E04 NF WEB-DL 1080p Latino.mkv
    Format                      : Matroska
    Format version              : Version 4
    File size                   : 2.78 GiB
    Duration                    : 55 min 16 s
    Overall bit rate mode       : Variable
    Overall bit rate            : 7 188 kb/s
    Movie name                  : Glitch S01E04 - CinemaniaHDD.Net
    Encoded date                : UTC 2019-09-27 06:06:09
    Writing application         : mkvmerge v35.0.0 ('All The Love In The World') 64-bit
    Writing library             : libebml v1.3.9 + libmatroska v1.5.2

    Video
    ID                          : 1
    Format                      : AVC
    Format/Info                 : Advanced Video Codec
    Format profile              : High@L4
    Format settings             : CABAC / 4 Ref Frames
    Format settings, CABAC      : Yes
    Format settings, ReFrames   : 4 frames
    Codec ID                    : V_MPEG4/ISO/AVC
    Duration                    : 55 min 16 s
    Bit rate mode               : Variable
    Bit rate                    : 6 930 kb/s
    Maximum bit rate            : 20.0 Mb/s
    Width                       : 1 920 pixels
    Height                      : 1 080 pixels
    Display aspect ratio        : 16:9
    Frame rate mode             : Constant
    Frame rate                  : 25.000 FPS
    Color space                 : YUV
    Chroma subsampling          : 4:2:0
    Bit depth                   : 8 bits
    Scan type                   : Progressive
    Bits/(Pixel*Frame)          : 0.134
    Stream size                 : 2.68 GiB (96%)
    Title                       : CinemaniaHDD
    Writing library             : x264 core 148
    Encoding settings           : cabac=1 / ref=4 / deblock=1:0:0 / analyse=0x3:0x111 / me=umh / subme=10 / psy=1 / psy_rd=1.00:0.00 / mixed_ref=1 / me_range=120 / chroma_me=1 / trellis=2 / 8x8dct=1 / cqm=0 / deadzone=21,11 / fast_pskip=1 / chroma_qp_offset=-2 / threads=8 / lookahead_threads=2 / sliced_threads=0 / nr=0 / decimate=1 / interlaced=0 / bluray_compat=0 / stitchable=1 / constrained_intra=0 / bframes=16 / b_pyramid=2 / b_adapt=2 / b_bias=0 / direct=3 / weightb=1 / open_gop=0 / weightp=2 / keyint=250 / keyint_min=126 / scenecut=0 / intra_refresh=0 / rc_lookahead=250 / rc=crf / mbtree=1 / crf=20.0 / qcomp=0.50 / qpmin=6 / qpmax=51 / qpstep=4 / vbv_maxrate=20000 / vbv_bufsize=25000 / crf_max=0.0 / nal_hrd=vbr / filler=0 / ip_ratio=1.40 / aq=1:0.80
    Default                     : Yes
    Forced                      : No

    Audio #1
    ID                          : 2
    Format                      : E-AC-3
    Format/Info                 : Enhanced AC-3
    Commercial name             : Dolby Digital Plus
    Codec ID                    : A_EAC3
    Duration                    : 55 min 16 s
    Bit rate mode               : Constant
    Bit rate                    : 128 kb/s
    Channel(s)                  : 2 channels
    Channel layout              : L R
    Sampling rate               : 48.0 kHz
    Frame rate                  : 31.250 FPS (1536 SPF)
    Compression mode            : Lossy
    Stream size                 : 50.6 MiB (2%)
    Title                       : Español latino [CinemaniaHDD]
    Language                    : Spanish
    Service kind                : Complete Main
    Default                     : No
    Forced                      : No

    Audio #2
    ID                          : 3
    Format                      : E-AC-3
    Format/Info                 : Enhanced AC-3
    Commercial name             : Dolby Digital Plus
    Codec ID                    : A_EAC3
    Duration                    : 55 min 16 s
    Bit rate mode               : Constant
    Bit rate                    : 128 kb/s
    Channel(s)                  : 2 channels
    Channel layout              : L R
    Sampling rate               : 48.0 kHz
    Frame rate                  : 31.250 FPS (1536 SPF)
    Compression mode            : Lossy
    Stream size                 : 50.6 MiB (2%)
    Title                       : Inglés [CinemaniaHDD]
    Language                    : English
    Service kind                : Complete Main
    Default                     : No
    Forced                      : No

    Text #1
    ID                          : 4
    Format                      : UTF-8
    Codec ID                    : S_TEXT/UTF8
    Codec ID/Info               : UTF-8 Plain Text
    Duration                    : 50 min 19 s
    Bit rate                    : 0 b/s
    Count of elements           : 11
    Stream size                 : 279 Bytes (0%)
    Title                       : Forzados [CinemaniaHDD]
    Language                    : Spanish
    Default                     : Yes
    Forced                      : Yes

    Text #2
    ID                          : 5
    Format                      : UTF-8
    Codec ID                    : S_TEXT/UTF8
    Codec ID/Info               : UTF-8 Plain Text
    Duration                    : 52 min 4 s
    Bit rate                    : 45 b/s
    Count of elements           : 555
    Stream size                 : 17.3 KiB (0%)
    Title                       : Español latino [CinemaniaHDD]
    Language                    : Spanish
    Default                     : No
    Forced                      : No

     

  • Peso: 2.78 GiB C/U

Sinopsis

James Hayes, es un oficial de policía de un pequeño pueblo quien es llamado al cementerio local en medio de la noche después de que seis personas, entre ellos: Kate Willis, Carlo, Paddy Fitzgerald, Charlie Thompson y Maria Massola, que estaban muertas aparecieron vivas y en perfectas condiciones. Las personas no tienen memoria ni recuerdan su verdadera identidad, pero están determinadas a descubrir quiénes son y qué les sucedió. James reconoce a Kate, su esposa quien había muerto dos años atrás. James junto a la doctora local Elishia McKeller, lucharan por protegerlos y mantener el caso oculto de sus compañeros, familia y el mundo. Las seis personas están vinculadas de alguna manera y así comenzará la búsqueda de la persona que sabe la verdad acerca de cómo y porqué han regresado a la vida

Ficha técnica

Video trailer de la película

Enlaces de descarga

Rip de Bluray

Descargar Glitch (2015) Temporada 1 NF WEB-DL 1080p Latino




Aportes de DPeliculasHDmega la pass es:dpeliculashdmega.org Aportes de CinemaniaHD la pass es:cinemaniahdd.com
Guardado en : Drama , Netflix , Sci-Fi & Fantasy , Series

Películas relacionadas

descargar Glitch (2015) Temporada 1 NF WEB-DL 1080p Latino WEBDL 1080p gratis, Glitch (2015) Temporada 1 NF WEB-DL 1080p Latino WEBDL mega 1 link, Glitch (2015) Temporada 1 NF WEB-DL 1080p Latino WEBDL serie completa, descargar Glitch (2015) Temporada 1 NF WEB-DL 1080p Latino WEBDL gratis en mega.

Glitch (2015) Temporada 1 NF WEB-DL 1080p Latino pelicula full hd, Glitch (2015) Temporada 1 NF WEB-DL 1080p Latino mega latino, Glitch (2015) Temporada 1 NF WEB-DL 1080p Latino 4k latino, Glitch (2015) Temporada 1 NF WEB-DL 1080p Latino pelicula completa, Glitch (2015) Temporada 1 NF WEB-DL 1080p Latino descargar gratis, descargar Glitch (2015) Temporada 1 NF WEB-DL 1080p Latino pelicula latino, Glitch (2015) Temporada 1 NF WEB-DL 1080p Latino 1 link mega, Glitch (2015) Temporada 1 NF WEB-DL 1080p Latino 1 link google drive, Glitch (2015) Temporada 1 NF WEB-DL 1080p Latino hd 1080p latino.
Comentarios 0